(Baroque opera) Handel - Riccardo Primo, Re d'Inghilterra / Гендель - Ричард Первый, король Англии (Sara Mingardo, Sandrine Piau / Les Talens Lyriques, Christophe Rousset) - 1996, FLAC (image+.cue) lossless


 

[Цитировать]

Handel - Riccardo Primo, Rè d'Inghilterra

Жанр: Baroque opera
Страна-производитель диска: Made in the USA
Год издания диска: 1996
Издатель (лейбл): The Decca Record Company Limited, London
Номер по каталогу: 452 201 - 2
Дата записи: 1996
Аудиокодек: FLAC
Тип рипа: image+.cue
Битрейт аудио: lossless
Продолжительность: 197.09 (CD1:73.48 , CD2:56.05 , CD3:67.16)
Источник: релизер
сайт-источник/ник/другое: HAByrns and classicallibrary (с его благословения)
Наличие сканов в содержимом раздачи: да
Треклист:

скрытый текст

CD1

скрытый текст

1. Atto Primo: Ov - Sandrine Piau/Olivier Lallouette
2. Scena 1:Lascia, Berardo, Lasciami! - Sandrine Piau/Olivier Lallouette
3. Scena 1: Se Peri L'amato Bene - Sandrine Piau
4. Scena 2: Se La Vergin Regale - Claire Brua/Roberto Scaltriti/Sandrine Piau/Pascal Bertin
5. Scena 2: Vado Per Obbedirti - Claire Brua
6. Scena 2: T' Arresta, Oronte, Ascolta - Roberto Scaltirti/Pascal Bertin
7. Scena 2: V' Adoro, O Luci Belle - Pascal Bertin
8. Scena 3: Torni La Gioia Al Nostro Cor - Pascal Bertin
9. Scena 3: Cessata E La Procella - Pascal Bertin
10. Scena 4: Cortese A Noi Si Mostra L'amabile Pulcheria - Sandrine Piau/Olivier Lallouette/Pascal Bertin/Claire Brua
11. Scena 4: Bella, Teco Non Ho - Claire Brua
12. Scena 4: Oronte! - Robert Scaltriti/Pascal Bertin/Sandrine Piau/Olivier Lallouette
13. Scena 4: Lascia La Pace All' alma! - Sandrine Piau
14. Scena 4: Isacio, Il Cui Gran Merto - Sara Mingardo/Roberto Scaltriti
15. Scena 4: Agitato Da Fiere Tempeste - Sara Mingardo
16. Atto Secondo, Scena 1:Se M' E Contratrio Il Cielo - Sandrine Piau
17. Scena 1: Seco Isacio Mi Volle - Olivier Lallouette/Sandrine Piau
18. Scena 1: Dell' Empia Frode Il Velo - Olivier Lallouette
19. Scena 1: Riccardo Sospirato - Sandrine Piau/Robert Scatriti
20. Scena 1: Di Notte Il Pellegrino - Sandrine Piau
21. Scena 1: Quanto Saresti Insano, Cuor D'Isacio - Roberto Scaltriti/Claire Brua
22. Scena 1:Ti Vedro Regnar Sul Trono - Roberto Scaltriti
23. Scena 1: Ah, Padre! Ah, Cielo! - Claire Brua
24. Scena 1: Quel Gelsomino, Che Imperla Il Prato - Claire Brua
CD2

скрытый текст

1. Atto Secondo, Scena 1: Prencipe, Og' Nor Compagna E D'Amor Gelosia - Sandrine Piau/Olivier Lallouette
2. Scena 1: Caro, Vieni A Me! - Sandrine Piau
3. Scena 1: Quanto Tarda Il Caro Bene - Sara Mingardo
4. Scena 1: Ma Vedo Corteggiata Da Nobil Donzelle - Sara Mingardo/Claire Brua/Pascal Bertin
5. Scena 2: Ai Guardi Tuoi - Claire Brua
6. Scena 2: Si, Sforzi Alla Ragion Questo Tiranno - Pascal Bertin/Sara Mingardo
7. Scena 2: O Vendicarmi - Sara Mingardo
8. Scena 2:Che Mai Pensa Tentar I'alma Guerriera! - Pascal Bertin
9. Scena 2: Dell' Onor Di Giuste Imprese - Pascal Bertin
10. Scena 3: Ah! Scampo Dagli Agguati Oronte - Roberto Scaltriti/Olivier Lallouette/Sara Mingardo/Claire Brua
11. Scena 3: Nube, Che Il Sole Adombra - Sara Mingardo
12. Scena 4: Si M' Contrario Il Cielo - Sandrine Piau
13. Scena 4: Mesta E Pensosa E Ancor Costanza? - Claire Brua/Sandrine Piau/Sara Mingardo
14. Scena 4 L'Aquila Altera Conosce I Figli - Claire Brua
15. Scena 1: Tutt'i Passati Affanni Or Copra Oblio - Sara Mingardo/Sandrine Piau
16. Scena 4: T'amo, Si! - Sara Mingardo/Sandrine Piau
CD3

скрытый текст

1. Atto Terzo, Scena 1: Perfido Isacio! Traditor! Tiranno! - Sara Mingardo
2. Scena 1: Dall' Avanzate Guardie Della Tenzon - Pascal Bertin/Sara Mingardo
3. Scena 1: All' Assalto, Alle Stragi, Alla Vendetta, Fedeli Miei - Sara Mingardo
4. Scena 1: Sire, I'Assalto, Alquanto Tardi - Pascal Bertin
5. Scena 1: Permia Vendetta Ancor - Pascal Bertin
6. Scena 1: O Voi, Che Meco Del Tamigi In Riva - Sara Mingardo
7. Scena 1: All' orror Delle Procelle - Sara Mingardo
8. Scena 2: Morte, Vieni! Ma In Van Ti Chiamo - Sandrine Piau
9. Scena 2: A Me Nel Mio rossore - Claire Brua/Sandrine Piau
10. Scena 2: Quell' Innocente, Afflitto Core - Claire Brua
11. Scena 2: Alto Immenso Poter - Sandrine Piau
12. Scena 2: Ingiustizia E Furore Dar' Moto All' Opre Mie - Roberto Scaltriti/Sandrine Piau
13. Scena 2: Nel Mondo E Nell' Abisso Io Non Pavento - Roberto Scaltriti/
14. Scena 2: Pulcheria Vuol, Che Seco A Riccardo Io Men N'vado - Olivier Lallouette/Sandrine Piau
15. Scena 2: Bacia Per Me La Mano Del Caro Idolo Mio - Sandrine Piau
16. Scena 3: Atterrato Il Muro Cada - Sara Mingardo
17. Scena 3: Arrestati, Riccardo, O Qui La Sveno! - Roberto Scaltriti/Sara Mingardo
18. Scena 3: Alla Vittoria! - Coro
19. Scena 4: Dal Passato Spavento Ancor Non Ponno - Sabdrine Piau/Sara Mingardo/Claire Brua
20. Scena 4: Il Volo Cosi Fido - Sandrine Piau
21. Scena 4: Pietoso Ciel, Tu M'ispirasti Sempre - Claire Brua
22. Scena 4: Tutta Brillanti Rai Per Lungo Scintillar - Claire Brua
23. Scena 5: Marche - Marche
24. Scena 5: Generosa Pulcheria! Fu La Vita D'Isacio - Sara Mingardo/Claire Brua/Sandrine Piau/Pascal Bertin
25. Scena 5: Volgete Ogni Desir - Sara Mingardo
26. Scena 5: Spargansi Pur D'oblio - Pascal Bertin
27. Scena 5: La Memoria Dei Tormenti - Coro
Исполнители:

скрытый текст

Handel
Riccardo Primo, Re d'Inghilterra
Первое исполнение: London, 11.11.1727
Либретто: Paolo Antonio Rolli
Riccardo Primo - Sara Mingardo (contralto)
Costanza - Sandrine Piau (soprano)
Pulcheria - Claire Brua (soprano)
Oronte - Pascal Bertin (countertenor)
Berardo - Olivier Lallouette (baritone)
Isacio - Roberto Scaltriti (bass)
Les Talens Lyriques
Conductor - Christophe Rousset
Recording Date June 4, 1995 - June 11, 1995
Лог создания рипа
CD1

скрытый текст

Exact Audio Copy V1.0 beta 3 from 29. August 2011
EAC extraction logfile from 31. October 2014, 8:45
Handel / Riccardo primo, Rè d'Inghilterra (disk 1 of 3)
Used drive : TSSTcorpCDDVDW SE-208AB Adapter: 0 ID: 0
Read mode : Secure
Utilize accurate stream : Yes
Defeat audio cache : Yes
Make use of C2 pointers : No
Read offset correction : 6
Overread into Lead-In and Lead-Out : No
Fill up missing offset samples with silence : Yes
Delete leading and trailing silent blocks : No
Null samples used in CRC calculations : Yes
Used interface : Native Win32 interface for Win NT & 2000
Used output format : User Defined Encoder
Selected bitrate : 768 kBit/s
Quality : High
Add ID3 tag : No
Command line compressor : C:\Program Files (x86)\Exact Audio Copy\FLAC\FLAC.EXE
Additional command line options : -6 -V -T "ARTIST=%artist%" -T "TITLE=%title%" -T "ALBUM=%albumtitle%" -T "DATE=%year%" -T "TRACKNUMBER=%tracknr%" -T "GENRE=%genre%" -T "COMMENT=%comment%" -T "BAND=%albuminterpret%" -T "ALBUMARTIST=%albuminterpret%" -T "COMPOSER=%composer%" %haslyrics%--tag-from-file=LYRICS="%lyricsfile%"%haslyrics% -T "DISCNUMBER=%cdnumber%" -T "TOTALDISCS=%totalcds%" -T "TOTALTRACKS=%numtracks%" %hascover%--picture="%coverfile%"%hascover% %source% -o %dest%
TOC of the extracted CD
Track | Start | Length | Start sector | End sector
---------------------------------------------------------
1 | 0:00.32 | 3:12.63 | 32 | 14494
2 | 3:13.20 | 2:31.62 | 14495 | 25881
3 | 5:45.07 | 6:59.63 | 25882 | 57369
4 | 12:44.70 | 1:38.25 | 57370 | 64744
5 | 14:23.20 | 4:30.50 | 64745 | 85044
6 | 18:53.70 | 0:41.12 | 85045 | 88131
7 | 19:35.07 | 4:53.50 | 88132 | 110156
8 | 24:28.57 | 0:51.33 | 110157 | 114014
9 | 25:20.15 | 5:01.67 | 114015 | 136656
10 | 30:22.07 | 1:41.50 | 136657 | 144281
11 | 32:03.57 | 3:47.18 | 144282 | 161324
12 | 35:51.00 | 1:56.07 | 161325 | 170031
13 | 37:47.07 | 3:26.50 | 170032 | 185531
14 | 41:13.57 | 2:01.25 | 185532 | 194631
15 | 43:15.07 | 4:30.63 | 194632 | 214944
16 | 47:45.70 | 1:44.10 | 214945 | 222754
17 | 49:30.05 | 0:44.15 | 222755 | 226069
18 | 50:14.20 | 3:52.50 | 226070 | 243519
19 | 54:06.70 | 1:37.25 | 243520 | 250819
20 | 55:44.20 | 4:26.45 | 250820 | 270814
21 | 60:10.65 | 2:10.70 | 270815 | 280634
22 | 62:21.60 | 4:51.40 | 280635 | 302499
23 | 67:13.25 | 1:22.57 | 302500 | 308706
24 | 68:36.07 | 5:12.50 | 308707 | 332156
Range status and errors
Selected range
Filename C:\EAC RIPS\Handel - Riccardo primo, Rè d'Inghilterra (disk 1 of 3).wav
Peak level 100.0 %
Extraction speed 2.1 X
Range quality 100.0 %
Test CRC D40A4609
Copy CRC D40A4609
Copy OK
No errors occurred
AccurateRip summary
Track 1 accurately ripped (confidence 2) [F8E4CE4F] (AR v1)
Track 2 accurately ripped (confidence 2) [3DF13C8E] (AR v1)
Track 3 accurately ripped (confidence 2) [BB505E15] (AR v1)
Track 4 accurately ripped (confidence 2) [153BEE7E] (AR v1)
Track 5 accurately ripped (confidence 2) [BC63487F] (AR v1)
Track 6 accurately ripped (confidence 2) [75C3637B] (AR v1)
Track 7 accurately ripped (confidence 2) [8356994B] (AR v1)
Track 8 accurately ripped (confidence 2) [5A373AC6] (AR v1)
Track 9 accurately ripped (confidence 2) [C692D91B] (AR v1)
Track 10 accurately ripped (confidence 2) [DD5F58D1] (AR v1)
Track 11 accurately ripped (confidence 2) [FB7EDB8A] (AR v1)
Track 12 accurately ripped (confidence 2) [3B4151F2] (AR v1)
Track 13 accurately ripped (confidence 2) [AE3C0A2D] (AR v1)
Track 14 accurately ripped (confidence 2) [A8E4705E] (AR v1)
Track 15 accurately ripped (confidence 2) [F0F87ED6] (AR v1)
Track 16 accurately ripped (confidence 2) [A1D22EF0] (AR v1)
Track 17 accurately ripped (confidence 2) [4AAB8A1B] (AR v1)
Track 18 accurately ripped (confidence 2) [F5D8396F] (AR v1)
Track 19 accurately ripped (confidence 2) [FA9772D8] (AR v1)
Track 20 accurately ripped (confidence 2) [CC7EA6B5] (AR v1)
Track 21 accurately ripped (confidence 2) [6FA8573D] (AR v1)
Track 22 accurately ripped (confidence 2) [88A5FAA2] (AR v1)
Track 23 accurately ripped (confidence 2) [95D2CA2C] (AR v1)
Track 24 accurately ripped (confidence 2) [9A5AC58A] (AR v1)
All tracks accurately ripped
End of status report
---- CUETools DB Plugin V2.1.3
[CTDB TOCID: IZ7CnIXIuNILb2LBHT.I0vDPi8o-] found, Submit result: discs with pregaps not supported in this protocol version
[2e389b37] (1/1) Differs in 32156 samples @00:00:12-00:00:42
You can use CUETools to repair this rip.
==== Log checksum F3512155CA2517F4131305E4A2449D120B25E4A63DA199913DB58F26D717B456 ====
CD2

скрытый текст

Exact Audio Copy V1.0 beta 3 from 29. August 2011
EAC extraction logfile from 31. October 2014, 12:16
Handel / Riccardo primo, Rè d'Inghilterra (disk 2 of 3)
Used drive : TSSTcorpCDDVDW SE-208AB Adapter: 0 ID: 0
Read mode : Secure
Utilize accurate stream : Yes
Defeat audio cache : Yes
Make use of C2 pointers : No
Read offset correction : 6
Overread into Lead-In and Lead-Out : No
Fill up missing offset samples with silence : Yes
Delete leading and trailing silent blocks : No
Null samples used in CRC calculations : Yes
Used interface : Native Win32 interface for Win NT & 2000
Used output format : User Defined Encoder
Selected bitrate : 768 kBit/s
Quality : High
Add ID3 tag : No
Command line compressor : C:\Program Files (x86)\Exact Audio Copy\FLAC\FLAC.EXE
Additional command line options : -6 -V -T "ARTIST=%artist%" -T "TITLE=%title%" -T "ALBUM=%albumtitle%" -T "DATE=%year%" -T "TRACKNUMBER=%tracknr%" -T "GENRE=%genre%" -T "COMMENT=%comment%" -T "BAND=%albuminterpret%" -T "ALBUMARTIST=%albuminterpret%" -T "COMPOSER=%composer%" %haslyrics%--tag-from-file=LYRICS="%lyricsfile%"%haslyrics% -T "DISCNUMBER=%cdnumber%" -T "TOTALDISCS=%totalcds%" -T "TOTALTRACKS=%numtracks%" %hascover%--picture="%coverfile%"%hascover% %source% -o %dest%
TOC of the extracted CD
Track | Start | Length | Start sector | End sector
---------------------------------------------------------
1 | 0:00.32 | 2:04.45 | 32 | 9376
2 | 2:05.02 | 4:10.05 | 9377 | 28131
3 | 6:15.07 | 1:48.25 | 28132 | 36256
4 | 8:03.32 | 3:35.43 | 36257 | 52424
5 | 11:39.00 | 5:10.52 | 52425 | 75726
6 | 16:49.52 | 1:01.60 | 75727 | 80361
7 | 17:51.37 | 3:14.45 | 80362 | 94956
8 | 21:06.07 | 0:34.18 | 94957 | 97524
9 | 21:40.25 | 4:48.32 | 97525 | 119156
10 | 26:28.57 | 3:27.25 | 119157 | 134706
11 | 29:56.07 | 6:16.38 | 134707 | 162944
12 | 36:12.45 | 0:39.12 | 162945 | 165881
13 | 36:51.57 | 2:38.63 | 165882 | 177794
14 | 39:30.45 | 5:15.62 | 177795 | 201481
15 | 44:46.32 | 0:49.05 | 201482 | 205161
16 | 45:35.37 | 10:33.33 | 205162 | 252669
Range status and errors
Selected range
Filename C:\EAC RIPS\Handel - Riccardo primo, Rè d'Inghilterra (disk 2 of 3).wav
Peak level 100.0 %
Extraction speed 1.9 X
Range quality 100.0 %
Test CRC E90C7C6D
Copy CRC E90C7C6D
Copy OK
No errors occurred
AccurateRip summary
Track 1 accurately ripped (confidence 2) [0695DE17] (AR v1)
Track 2 accurately ripped (confidence 2) [B6B1D6E8] (AR v1)
Track 3 accurately ripped (confidence 2) [51A9385E] (AR v1)
Track 4 accurately ripped (confidence 2) [B128F623] (AR v1)
Track 5 accurately ripped (confidence 2) [ECC565C9] (AR v1)
Track 6 accurately ripped (confidence 2) [631C453C] (AR v1)
Track 7 accurately ripped (confidence 2) [F9D0E6B4] (AR v1)
Track 8 accurately ripped (confidence 2) [B44DDE40] (AR v1)
Track 9 accurately ripped (confidence 2) [55B5399E] (AR v1)
Track 10 accurately ripped (confidence 2) [91B58A4C] (AR v1)
Track 11 accurately ripped (confidence 2) [F16A59CC] (AR v1)
Track 12 accurately ripped (confidence 2) [636883EC] (AR v1)
Track 13 accurately ripped (confidence 2) [EAB88C02] (AR v1)
Track 14 accurately ripped (confidence 2) [76674344] (AR v1)
Track 15 accurately ripped (confidence 2) [9D0DC4EB] (AR v1)
Track 16 accurately ripped (confidence 2) [24416C93] (AR v1)
All tracks accurately ripped
End of status report
---- CUETools DB Plugin V2.1.3
[CTDB TOCID: _ohwSf5DFOxp3n7CZZvUX6RyOMg-] found, Submit result: discs with pregaps not supported in this protocol version
[083e9625] (1/1) Differs in 42790 samples @00:00:06-00:00:46
You can use CUETools to repair this rip.
==== Log checksum ACB41BCB7D8BDFE77DCEFCC78E432088F78EFA0390FA4EBA42F548EB2E0081B0 ====
CD3

скрытый текст

Exact Audio Copy V1.0 beta 3 from 29. August 2011
EAC extraction logfile from 31. October 2014, 10:56
Handel / Riccardo primo, Rè d'Inghilterra (disk 3 of 3)
Used drive : TSSTcorpCDDVDW SE-208AB Adapter: 0 ID: 0
Read mode : Secure
Utilize accurate stream : Yes
Defeat audio cache : Yes
Make use of C2 pointers : No
Read offset correction : 6
Overread into Lead-In and Lead-Out : No
Fill up missing offset samples with silence : Yes
Delete leading and trailing silent blocks : No
Null samples used in CRC calculations : Yes
Used interface : Native Win32 interface for Win NT & 2000
Used output format : User Defined Encoder
Selected bitrate : 768 kBit/s
Quality : High
Add ID3 tag : No
Command line compressor : C:\Program Files (x86)\Exact Audio Copy\FLAC\FLAC.EXE
Additional command line options : -6 -V -T "ARTIST=%artist%" -T "TITLE=%title%" -T "ALBUM=%albumtitle%" -T "DATE=%year%" -T "TRACKNUMBER=%tracknr%" -T "GENRE=%genre%" -T "COMMENT=%comment%" -T "BAND=%albuminterpret%" -T "ALBUMARTIST=%albuminterpret%" -T "COMPOSER=%composer%" %haslyrics%--tag-from-file=LYRICS="%lyricsfile%"%haslyrics% -T "DISCNUMBER=%cdnumber%" -T "TOTALDISCS=%totalcds%" -T "TOTALTRACKS=%numtracks%" %hascover%--picture="%coverfile%"%hascover% %source% -o %dest%
TOC of the extracted CD
Track | Start | Length | Start sector | End sector
---------------------------------------------------------
1 | 0:00.32 | 0:37.35 | 32 | 2841
2 | 0:37.67 | 1:01.03 | 2842 | 7419
3 | 1:38.70 | 0:13.50 | 7420 | 8444
4 | 1:52.45 | 0:32.65 | 8445 | 10909
5 | 2:25.35 | 4:18.10 | 10910 | 30269
6 | 6:43.45 | 1:25.30 | 30270 | 36674
7 | 8:09.00 | 5:04.57 | 36675 | 59531
8 | 13:13.57 | 2:20.38 | 59532 | 70069
9 | 15:34.20 | 1:45.25 | 70070 | 77969
10 | 17:19.45 | 7:18.12 | 77970 | 110831
11 | 24:37.57 | 0:52.20 | 110832 | 114751
12 | 25:30.02 | 2:02.38 | 114752 | 123939
13 | 27:32.40 | 3:01.55 | 123940 | 137569
14 | 30:34.20 | 0:56.37 | 137570 | 141806
15 | 31:30.57 | 7:18.25 | 141807 | 174681
16 | 38:49.07 | 1:55.58 | 174682 | 183364
17 | 40:44.65 | 1:42.15 | 183365 | 191029
18 | 42:27.05 | 1:02.02 | 191030 | 195681
19 | 43:29.07 | 1:13.63 | 195682 | 201219
20 | 44:42.70 | 6:05.25 | 201220 | 228619
21 | 50:48.20 | 0:56.30 | 228620 | 232849
22 | 51:44.50 | 4:19.07 | 232850 | 252281
23 | 56:03.57 | 1:34.23 | 252282 | 259354
24 | 57:38.05 | 1:27.52 | 259355 | 265931
25 | 59:05.57 | 5:35.55 | 265932 | 291111
26 | 64:41.37 | 0:15.28 | 291112 | 292264
27 | 64:56.65 | 2:19.42 | 292265 | 302731
Range status and errors
Selected range
Filename C:\EAC RIPS\Handel - Riccardo primo, Rè d'Inghilterra (disk 3 of 3).wav
Peak level 100.0 %
Extraction speed 2.2 X
Range quality 100.0 %
Test CRC 58EA963F
Copy CRC 58EA963F
Copy OK
No errors occurred
AccurateRip summary
Track 1 accurately ripped (confidence 2) [276F9208] (AR v1)
Track 2 accurately ripped (confidence 2) [02C21C21] (AR v1)
Track 3 accurately ripped (confidence 2) [84714095] (AR v1)
Track 4 accurately ripped (confidence 2) [C2D4976D] (AR v1)
Track 5 accurately ripped (confidence 2) [B375FAD9] (AR v1)
Track 6 accurately ripped (confidence 2) [3AC64196] (AR v1)
Track 7 accurately ripped (confidence 2) [C4197728] (AR v1)
Track 8 accurately ripped (confidence 2) [1AFA3BF7] (AR v1)
Track 9 accurately ripped (confidence 2) [5F711EF9] (AR v1)
Track 10 accurately ripped (confidence 2) [9DF1CD86] (AR v1)
Track 11 accurately ripped (confidence 2) [7204401B] (AR v1)
Track 12 accurately ripped (confidence 2) [330890A9] (AR v1)
Track 13 accurately ripped (confidence 2) [BEEC1817] (AR v1)
Track 14 accurately ripped (confidence 2) [4A6155C5] (AR v1)
Track 15 accurately ripped (confidence 2) [1FFB7FC9] (AR v1)
Track 16 accurately ripped (confidence 1) [5EDF3EF1] (AR v1)
Track 17 accurately ripped (confidence 2) [F6CFD479] (AR v1)
Track 18 accurately ripped (confidence 2) [42D99E6B] (AR v1)
Track 19 accurately ripped (confidence 2) [0853C210] (AR v1)
Track 20 accurately ripped (confidence 2) [67FB44B8] (AR v1)
Track 21 accurately ripped (confidence 2) [96310E5A] (AR v1)
Track 22 accurately ripped (confidence 2) [24D76034] (AR v1)
Track 23 accurately ripped (confidence 2) [318CA811] (AR v1)
Track 24 accurately ripped (confidence 2) [F0289C48] (AR v1)
Track 25 accurately ripped (confidence 2) [43B7B4F2] (AR v1)
Track 26 accurately ripped (confidence 2) [C4025122] (AR v1)
Track 27 accurately ripped (confidence 2) [7953E3C1] (AR v1)
All tracks accurately ripped
End of status report
---- CUETools DB Plugin V2.1.3
[CTDB TOCID: C4rIlFPinmXfH0TM11IpxoetO1Q-] database access error: Se excedió el tiempo de espera de la operación
==== Log checksum 8AB0C45C33BADA8E72A80FBFCE930339F739433E7C577484AC889087FD7D8211 ====
Содержание индексной карты (.CUE)
CD1

скрытый текст

REM GENRE Opera
REM DATE 1996
REM DISCID 6A114C18
REM COMMENT "ExactAudioCopy v1.0b3"
CATALOG 0028945220222
PERFORMER "Handel"
TITLE "Riccardo primo, Re d'Inghilterra (disk 1 of 3)"
FILE "Handel - Riccardo primo, Re d'Inghilterra (disk 1 of 3).flac" WAVE
TRACK 01 AUDIO
TITLE "Overture"
PERFORMER "Handel"
ISRC GBF079541601
INDEX 00 00:00:00
INDEX 01 00:00:32
TRACK 02 AUDIO
TITLE "Act 1 Scene 1: 'Lascia, Berardo, lasciami!' (Recitativo accompagnato: Costanz..."
PERFORMER "Handel"
ISRC GBF079541602
INDEX 01 03:13:20
TRACK 03 AUDIO
TITLE "Act 1 Scene 1: 'Se peri l'amato bene' (Aria: Costanza)"
PERFORMER "Handel"
ISRC GBF079541603
INDEX 01 05:45:07
TRACK 04 AUDIO
TITLE "Act 1 Scene 2: 'Se la vergin regale' (Recitativo: Pulcheria, Isacio, Berardo,..."
PERFORMER "Handel"
ISRC GBF079541604
INDEX 01 12:44:70
TRACK 05 AUDIO
TITLE "Act 1 Scene 2: 'Vado per obbedirti' (Aria: Pulcheria)"
PERFORMER "Handel"
ISRC GBF079541604
INDEX 01 14:23:20
TRACK 06 AUDIO
TITLE "Act 1 Scene 2: 'T'arresta, Oronte, ascolta' (Recitativo: Isacio, Oronte)"
PERFORMER "Handel"
ISRC GBF079541606
INDEX 01 18:53:70
TRACK 07 AUDIO
TITLE "Act 1 Scene 2: 'V'adoro, o luci belle' (Aria: Oronte)"
PERFORMER "Handel"
ISRC GBF079541607
INDEX 01 19:35:07
TRACK 08 AUDIO
TITLE "Act 1 Scene 3: 'Torni la gioia al nostro cor' (Recitativo: Riccardo)"
PERFORMER "Handel"
ISRC GBF079541608
INDEX 00 24:27:57
INDEX 01 24:28:57
TRACK 09 AUDIO
TITLE "Act 1 Scene 3: 'Cessata и la procella' (Aria: Riccardo)"
PERFORMER "Handel"
ISRC GBF079541609
INDEX 01 25:20:15
TRACK 10 AUDIO
TITLE "Act 1 Scene 4: 'Cortese a noi si mostra l'amabile Pulcheria' (Recitativo: Cos..."
PERFORMER "Handel"
ISRC GBF079541610
INDEX 00 30:21:07
INDEX 01 30:22:07
TRACK 11 AUDIO
TITLE "Act 1 Scene 4: 'Bella, teco non ho' (Aria: Pulcheria)"
PERFORMER "Handel"
ISRC GBF079541611
INDEX 01 32:03:57
TRACK 12 AUDIO
TITLE "Act 1 Scene 4: 'Oronte!' (Recitativo: Isacio, Oronte, Costanza, Berardo)"
PERFORMER "Handel"
ISRC GBF079541612
INDEX 01 35:51:00
TRACK 13 AUDIO
TITLE "Act 1 Scene 4: 'Lascia la pace all'alma!' (Aria: Costanza)"
PERFORMER "Handel"
ISRC GBF079541613
INDEX 01 37:47:07
TRACK 14 AUDIO
TITLE "Act 1 Scene 4: 'Isacio, il cui gran merto' (Recitativo: Riccardo, Isacio)"
PERFORMER "Handel"
ISRC GBF079541614
INDEX 01 41:13:57
TRACK 15 AUDIO
TITLE "Act 1 Scene 4: 'Agitato da fiere tempeste' (Aria: Riccardo)"
PERFORMER "Handel"
ISRC GBF079541615
INDEX 01 43:15:07
TRACK 16 AUDIO
TITLE "Act 2 Scene 1: 'Se m'и contrario il Cielo' (Arioso: Costanza)"
PERFORMER "Handel"
ISRC GBF079541616
INDEX 00 47:37:57
INDEX 01 47:45:70
TRACK 17 AUDIO
TITLE "Act 2 Scene 1: 'Seco Isacio mi volle' (Recitativo: Berardo Costanza)"
PERFORMER "Handel"
ISRC GBF079541617
INDEX 01 49:30:05
TRACK 18 AUDIO
TITLE "Act 2 Scene 1: 'Dell'empia frode il velo (Aria: Berardo)"
PERFORMER "Handel"
ISRC GBF079541618
INDEX 01 50:14:20
TRACK 19 AUDIO
TITLE "Act 2 Scene 1: 'Riccardo sospirato' (Recitativo: Costanza, Isacio)"
PERFORMER "Handel"
ISRC GBF079541619
INDEX 01 54:06:70
TRACK 20 AUDIO
TITLE "Act 2 Scene 1: 'Di notte il pellegrino' (Aria: Costanza)"
PERFORMER "Handel"
ISRC GBF079541620
INDEX 01 55:44:20
TRACK 21 AUDIO
TITLE "Act 2 Scene 1: 'Quanto saresti insano, cuor d'Isacio' (Recitativo: Isacio, Pu..."
PERFORMER "Handel"
ISRC GBF079541621
INDEX 01 60:10:65
TRACK 22 AUDIO
TITLE "Act 2 Scene 1: 'Ti vedrт regnar sul trono' (Aria: Isacio)"
PERFORMER "Handel"
ISRC GBF079541622
INDEX 01 62:21:60
TRACK 23 AUDIO
TITLE "Act 2 Scene 1: 'Ah, padre! ah, Cielo!' (Recitativo accompagnato: Pulcheria)"
PERFORMER "Handel"
ISRC GBF079541623
INDEX 01 67:13:25
TRACK 24 AUDIO
TITLE "Act 2 Scene 1: 'Quel gelsomino, che imperla il prato' (Aria: Pulcheria)"
PERFORMER "Handel"
ISRC GBF079541624
INDEX 01 68:36:07
CD2

скрытый текст

REM GENRE Opera
REM DATE 1996
REM DISCID D20D2810
REM COMMENT "ExactAudioCopy v1.0b3"
CATALOG 0028945220321
PERFORMER "Handel"
TITLE "Riccardo primo, Re d'Inghilterra (disk 2 of 3)"
FILE "Handel - Riccardo primo, Re d'Inghilterra (disk 2 of 3).flac" WAVE
TRACK 01 AUDIO
TITLE "Act 2 Scene 1: 'Prencipe, og'nor compagna и d'amor gelosia' (Recitativo: Cost..."
PERFORMER "Handel"
ISRC GBF079541625
INDEX 00 00:00:00
INDEX 01 00:00:32
TRACK 02 AUDIO
TITLE "Act 2 Scene 1: 'Caro, vieni a me!' (Aria: Costanza)"
PERFORMER "Handel"
ISRC GBF079541626
INDEX 01 02:05:02
TRACK 03 AUDIO
TITLE "Act 2 Scene 2: 'Quanto tarda il caro bene' (Arioso: Riccardo)"
PERFORMER "Handel"
ISRC GBF079541627
INDEX 00 06:12:20
INDEX 01 06:15:07
TRACK 04 AUDIO
TITLE "Act 2 Scene 2: 'Ma vedo corteggiata da nobil donzelle' (Recitativo: Riccardo,..."
PERFORMER "Handel"
ISRC GBF079541628
INDEX 01 08:03:32
TRACK 05 AUDIO
TITLE "Act 2 Scene 2: 'Ai guardi tuoi' (Aria: Pulcheria)"
PERFORMER "Handel"
ISRC GBF079541629
INDEX 01 11:39:00
TRACK 06 AUDIO
TITLE "Act 2 Scene 2: 'Si, sforzi alla ragion questo tiranno' (Recitativo: Oronte, R..."
PERFORMER "Handel"
ISRC GBF079541630
INDEX 01 16:49:52
TRACK 07 AUDIO
TITLE "Act 2 Scene 2: 'O vendicarmi' (Aria: Riccardo)"
PERFORMER "Handel"
ISRC GBF079541631
INDEX 01 17:51:37
TRACK 08 AUDIO
TITLE "Act 2 Scene 2: 'Che mai pensa tentar l'alma guerriera!' (Recitativo: Oronte)"
PERFORMER "Handel"
ISRC GBF079541632
INDEX 01 21:06:07
TRACK 09 AUDIO
TITLE "Act 2 Scene 2: 'Dell'onor di giuste imprese' (Aria: Oronte)"
PERFORMER "Handel"
ISRC GBF079541633
INDEX 01 21:40:25
TRACK 10 AUDIO
TITLE "Act 2 Scene 3: 'Ah! scampт dagli agguati Oronte' (Recitativo: Isacio, Berardo..."
PERFORMER "Handel"
ISRC GBF079541634
INDEX 00 26:26:45
INDEX 01 26:28:57
TRACK 11 AUDIO
TITLE "Act 2 Scene 3: 'Nube, che il sole adombra' (Aria: Riccardo)"
PERFORMER "Handel"
ISRC GBF079541635
INDEX 01 29:56:07
TRACK 12 AUDIO
TITLE "Act 2 Scene 4: 'Si m'и contrario il Cielo' (Arioso: Costanza)"
PERFORMER "Handel"
ISRC GBF079541636
INDEX 00 36:10:45
INDEX 01 36:12:45
TRACK 13 AUDIO
TITLE "Act 2 Scene 4: 'Mesta e pensosa и ancor Costanza?' (Recitativo: Pulcheria, Co..."
PERFORMER "Handel"
ISRC GBF079541637
INDEX 01 36:51:57
TRACK 14 AUDIO
TITLE "Act 2 Scene 4: 'L'aquila altera conosce i figli' (Aria: Pulcheria)"
PERFORMER "Handel"
ISRC GBF079541638
INDEX 01 39:30:45
TRACK 15 AUDIO
TITLE "Act 2 Scene 4: 'Tutt'i passati affanni or copra oblio' (Recitativo: Riccardo,..."
PERFORMER "Handel"
ISRC GBF079541639
INDEX 01 44:46:32
TRACK 16 AUDIO
TITLE "Act 2 Scene 4: 'T'amo, si!' (Duetto: Riccardo, Costanza)"
PERFORMER "Handel"
ISRC GBF079541639
INDEX 01 45:35:37
CD3

скрытый текст

REM GENRE Opera
REM DATE 1996
REM DISCID 7C0FC41B
REM COMMENT "ExactAudioCopy v1.0b3"
CATALOG 0028945220420
PERFORMER "Handel"
TITLE "Riccardo primo, Re d'Inghilterra (disk 3 of 3)"
FILE "Handel - Riccardo primo, Re d'Inghilterra (disk 3 of 3).flac" WAVE
TRACK 01 AUDIO
TITLE "Act 3 Scene 1: 'Perfido Isacio! traditor! tiranno!' (Recitativo accompagnato:..."
PERFORMER "Handel"
ISRC GBF079541641
INDEX 00 00:00:00
INDEX 01 00:00:32
TRACK 02 AUDIO
TITLE "Act 3 Scene 1: 'Dall'avanzate guardie della tenzon' (Recitativo: Oronte, Ricc..."
PERFORMER "Handel"
ISRC GBF079541642
INDEX 01 00:37:67
TRACK 03 AUDIO
TITLE "Act 3 Scene 1: 'All'assalto, alle stragi, alla vendetta, fedeli miei' (Recita..."
PERFORMER "Handel"
ISRC GBF079541643
INDEX 01 01:38:70
TRACK 04 AUDIO
TITLE "Act 3 Scene 1: 'Sire, l'assalto, alquanto tardi' (Recitativo: Oronte)"
PERFORMER "Handel"
ISRC GBF079541644
INDEX 01 01:52:45
TRACK 05 AUDIO
TITLE "Act 3 Scene 1: 'Per mia vendetta ancor' (Aria: Oronte)"
PERFORMER "Handel"
ISRC GBF079541645
INDEX 01 02:25:35
TRACK 06 AUDIO
TITLE "Act 3 Scene 1: 'O voi, che meco del Tamigi in riva' (Recitativo accompagnato:..."
PERFORMER "Handel"
ISRC GBF079541646
INDEX 01 06:43:45
TRACK 07 AUDIO
TITLE "Act 3 Scene 1: 'All'orror delle procelle' (Aria: Riccardo)"
PERFORMER "Handel"
ISRC GBF079541647
INDEX 01 08:09:00
TRACK 08 AUDIO
TITLE "Act 3 Scene 2: 'Morte, vieni! ma in van ti chiamo' (Arioso: Costanza)"
PERFORMER "Handel"
ISRC GBF079541648
INDEX 00 13:10:45
INDEX 01 13:13:57
TRACK 09 AUDIO
TITLE "Act 3 Scene 2: 'A me nel mio rossore' (Recitativo: Pulcheria, Costanza)"
PERFORMER "Handel"
ISRC GBF079541649
INDEX 00 15:33:07
INDEX 01 15:34:20
TRACK 10 AUDIO
TITLE "Act 3 Scene 2: 'Quell'innocente, afflitto core' (Aria: Pulcheria)"
PERFORMER "Handel"
ISRC GBF079541649
INDEX 01 17:19:45
TRACK 11 AUDIO
TITLE "Act 3 Scene 2: 'Alto immenso poter' (Recitativo accompagnato: Costanza)"
PERFORMER "Handel"
ISRC GBF079541651
INDEX 01 24:37:57
TRACK 12 AUDIO
TITLE "Act 3 Scene 2: 'Ingiustizia e furore dar' moto all'opre mie (Recitativo: Isac..."
PERFORMER "Handel"
ISRC GBF079541652
INDEX 01 25:30:02
TRACK 13 AUDIO
TITLE "Act 3 Scene 2: 'Nel mondo e nell'abisso io non pavento' (Aria: Isacio)"
PERFORMER "Handel"
ISRC GBF079541652
INDEX 01 27:32:40
TRACK 14 AUDIO
TITLE "Act 3 Scene 2: 'Pulcheria vuol, che seco a Riccardo io men n'vado' (Recitativ..."
PERFORMER "Handel"
ISRC GBF079541654
INDEX 01 30:34:20
TRACK 15 AUDIO
TITLE "Act 3 Scene 2: 'Bacia per me la mano del caro idolo mio' (Aria: Costanza)"
PERFORMER "Handel"
ISRC GBF079541655
INDEX 01 31:30:57
TRACK 16 AUDIO
TITLE "Act 3 Scene 3: 'Atterrato il muro cada' (Aria: Riccardo)"
PERFORMER "Handel"
ISRC GBF079541656
INDEX 00 38:45:07
INDEX 01 38:49:07
TRACK 17 AUDIO
TITLE "Act 3 Scene 3: 'Arrestati, Riccardo, o qui la sveno!' (Recitativo: Isacio, Ri..."
PERFORMER "Handel"
ISRC GBF079541657
INDEX 01 40:44:65
TRACK 18 AUDIO
TITLE "Act 3 Scene 3: 'Alla vittoria!' (Coro)"
PERFORMER "Handel"
ISRC GBF079541658
INDEX 01 42:27:05
TRACK 19 AUDIO
TITLE "Act 3 Scene 4: 'Dal passato spavento ancor non ponno' (Recitativo: Costanza, ..."
PERFORMER "Handel"
ISRC GBF079541659
INDEX 00 43:25:32
INDEX 01 43:29:07
TRACK 20 AUDIO
TITLE "Act 3 Scene 4: 'Il volo cosi fido' (Aria: Costanza)"
PERFORMER "Handel"
ISRC GBF079541660
INDEX 01 44:42:70
TRACK 21 AUDIO
TITLE "Act 3 Scene 4: 'Pietoso Ciel, tu m'ispirast sempre' (Recitativo: Pulcheria)"
PERFORMER "Handel"
ISRC GBF079541661
INDEX 01 50:48:20
TRACK 22 AUDIO
TITLE "Act 3 Scene 4: 'Tutta brillanti rai per lungo scintillar' (Aria: Pulcheria)"
PERFORMER "Handel"
ISRC GBF079541662
INDEX 01 51:44:50
TRACK 23 AUDIO
TITLE "Act 3 Scene 5: Marche"
PERFORMER "Handel"
ISRC GBF079541663
INDEX 01 56:03:57
TRACK 24 AUDIO
TITLE "Act 3 Scene 5: 'Generosa Pulcheria! fu la vita d'Isacio' (Recitativo: Riccard..."
PERFORMER "Handel"
ISRC GBF079541664
INDEX 01 57:38:05
TRACK 25 AUDIO
TITLE "Act 3 Scene 5: 'Volgete ogni desir' (Aria: Riccardo)"
PERFORMER "Handel"
ISRC GBF079541664
INDEX 01 59:05:57
TRACK 26 AUDIO
TITLE "Act 3 Scene 5: 'Spargansi pur d'oblio' (Recitativo: Oronte)"
PERFORMER "Handel"
ISRC GBF079541665
INDEX 01 64:41:37
TRACK 27 AUDIO
TITLE "Act 3 Scene 5: 'La memoria dei tormenti' (Coro)"
PERFORMER "Handel"
ISRC GBF079541667
INDEX 01 64:56:65
Содержание:

скрытый текст

АКТ I
Недалеко от берегов Кипра шторм настигает английский флот, с которым Ричард Первый (Ричард Львиное Сердце) ожидал прибытия своей невесты Констанцы (Беренгария Наваррская). Полагая, что её жених утонул, безутешная Констанца и ее слуга Берардо под выдуманными именами находят убежище при дворе местного герцога Изацио. Изацио поражён красотой Констанцы и пытается добиться ее расположения. Но Ричард выжил. Под видом посла своего королевства, он предстаёт перед Изацио и требует, чтобы тот освободил Констанцу, которую до этого никогда не видел. Изацио обещает отпустить его невесту.
АКТ II
Берардо даёт обещание Констанце выяснить, знает ли Ричард, что она все еще жива. Коварный Изацио узнаёт о том, кем на самом деле является Констанца. Он приказывает своей дочери Пульхерии выйти замуж за Ричарда, выдав себя за Констанцу. Пульхерия в бешенстве, так как она уже помолвлена с Оронтом, и клянётся себе, что раскроет всю правду при первой же возможности. Обман Изацио раскрыт, и Пульхерия предлагает себя в заложники Ричарду, чтобы освободить Констанцу. Она наконец-то впервые представляет Констанцу её жениху. Сцена завершается красивым объяснием в любви Ричарда и Констанцы.
АКТ III
Отпустив Констанцу, Изацио тут же заманивают её в засаду ловким маневром, и держит теперь уже в качестве заложницы, угрожая убить в случае нападения Ричарда. Констанца, во дворце, умоляет о смерти как единственном выходе и просит небеса помочь ей. Но и Пульхерия, находясь в заложницах у Ричарда, готова убить себя, однако Оронте вовремя выхватывает меч из её рук. Наконец, под звуки мощной симфонии сражения - с трубами, рожками и литаврами - Ричард одерживает победу над Изацио и заставляет его отречься от власти в пользу Оронто и Пульхерии. Звучит триумфальный марш: Ричард клянётся в вечной преданности Констанце и дружбе к Пульхерии. Все объединяются в ликующем хоре.
(вольный перевод Arleg)



Показать сообщения:    

Текущее время: 05-Дек 19:35

Часовой пояс: UTC + 3


Вы не можете начинать темы
Вы не можете отвечать на сообщения
Вы не можете редактировать свои сообщения
Вы не можете удалять свои сообщения
Вы не можете голосовать в опросах
Вы не можете прикреплять файлы к сообщениям
Вы не можете скачивать файлы