Где умирают собаки / Where Dogs Die (Светлана Филиппова / Svetlana Filippova) [2011, Франция, анимационный фильм, DVDScreener]


 

[Цитировать]

Где умирают собаки / Where Dogs Die
Страна: Франция
Жанр: анимационный фильм
Год выпуска: 2011
Продолжительность: 00:12:04
Перевод: Не требуется
Cубтитры: нет
Режиссер: Светлана Филиппова / Svetlana Filippova
Описание: "Человек вырастает и уезжает из дома. Всю жизнь он хочет вернуться домой – в прошлое. Но происходит многое, что он не может изменить: стареет мать, разрушается дом, умирает собака. Это случается с каждым и это неизбежно.
Все превращается в воспоминание, сон или фильм."
Светлана Филиппова
Доп. информация: Открытый Фестиваль студенческих и дебютных фильмов «Святая Анна», Москва (Россия), 2012
Открытый фестиваль анимационного кино, Суздаль (Россия), 2012
Московский международный кинофестиваль (ММКФ), Москва (Россия), 2012
Фестиваль авторского короткометражного кино "АРТкино", Москва (Россия), 2012
Фестиваль русского кино в Лондоне, Лондон (Великобритания), 2012
Большой фестиваль мультфильмов, Москва (Россия), 2011
Качество видео: DVDScreener
Формат видео: AVI
Видео: DIVX, 720x488, 3:2, 25fps, 2074kbps
Аудио: MPEG Layer 3, 48kHz, 192kbps, 2ch

MediaInfo

Полное имя : Где умирают собаки.avi
Формат : AVI
Формат/Информация : Audio Video Interleave
Размер файла : 197 Мбайт
Продолжительность : 12 м.
Общий поток : 2276 Кбит/сек
Программа кодирования : VirtualDubMod 1.5.10.3 | www.virtualdub-fr.org || (build 2550/release)
Библиотека кодирования : VirtualDubMod build 2550/release
Видео
Идентификатор : 0
Формат : MPEG-4 Visual
Профиль формата : Advanced Simple@L5
Параметр BVOP формата : 1
Параметр QPel формата : Нет
Параметр GMC формата : Без точки перехода
Параметр матрицы формата : Default (H.263)
Идентификатор кодека : DIVX
Идентификатор кодека/Информация : Project Mayo
Идентификатор кодека/Подсказка : DivX 4
Продолжительность : 12 м.
Битрейт : 2074 Кбит/сек
Ширина : 720 пикселей
Высота : 488 пикселей
Соотношение сторон : 3:2
Частота кадров : 25,000 кадров/сек
Цветовое пространство : YUV
Субдискретизация насыщенности : 4:2:0
Битовая глубина : 8 бит
Тип развёртки : Прогрессивная
Метод сжатия : С потерями
Бит/(Пиксели*Кадры) : 0.236
Размер потока : 179 Мбайт (91%)
Библиотека кодирования : XviD 1.2.1 (UTC 2008-12-04)
Аудио
Идентификатор : 1
Формат : MPEG Audio
Версия формата : Version 1
Профиль формата : Layer 3
Идентификатор кодека : 55
Идентификатор кодека/Подсказка : MP3
Продолжительность : 12 м.
Вид битрейта : Постоянный
Битрейт : 192 Кбит/сек
Каналы : 2 канала
Частота : 48,0 КГц
Метод сжатия : С потерями
Размер потока : 16,6 Мбайт (8%)
Выравнивание : Соединение по промежуткам
Продолжительность промежутка : 40 мс. (1,00 видеокадр)
Время предзагрузки промежутка : 504 мс.
Библиотека кодирования : LAME3.99r
Настройки программы : -m s -V 4 -q 0 -lowpass 18.6 -b 192

Скриншот c названием фильма

Скриншоты






Показать сообщения:    

Текущее время: 11-Дек 07:15

Часовой пояс: UTC + 3


Вы не можете начинать темы
Вы не можете отвечать на сообщения
Вы не можете редактировать свои сообщения
Вы не можете удалять свои сообщения
Вы не можете голосовать в опросах
Вы не можете прикреплять файлы к сообщениям
Вы не можете скачивать файлы