Разум Леонардо да Винчи / Истинный Леонардо / Внутри разума Леонардо / Inside the Mind of Leonardo / Эпизод 1-2 из 2 (Джулиан Джонс / Julian Jones) [2013, документально-игровой, биографический, DVB] VO (Ред Медиа)


Статистика раздачи [Обновить пиров]
Размер:  1.6 GB   |    Зарегистрирован:  8 месяцев 17 дней   |    Скачан:  0 раз

Полного источника не было: Никогда

 
   
 
 
 

[Цитировать]

Разум Леонардо да Винчи
Inside the Mind of Leonardo- Дата/Год выпуска: 2013
Страна: Великобритания, Канада
Жанр: документально-игровой, биографический
Продолжительность: 01:34:54 (00:46:57 + 00:44:57)
Перевод: Студийный (одноголосый закадровый)
Доп. инфо о переводе: ТПО "Ред Медиа"
Русские субтитры: нет
Режиссер: Джулиан Джонс / Julian Jones
Телеканал: 365 дней
В ролях: Питер Капальди / Peter Capaldi (Leonardo Da Vinci)Описание: Фильм посвящен малоизвестным страницам жизни и творчества Леонардо да Винчи. Основанный на личных дневниках художника, он раскрывает нам многогранный образ живописца, скульптора, ученого, инженера и увлеченного исследователя. Создатель бессмертной "Моны Лизы", "Тайной вечери" и других прославленных произведений, занимался проектированием и изготовлением оружия, исследованиями в области анатомии человека, инженерными работами по конструированию разнообразных машин. Его записи хранят много тайн, связанных с его искусством и его внутренним миром.
Доп. информация: DVB-S. Отличие от имеющихся раздач: другой перевод VO (ТПО "Ред Медиа"), в имеющихся на трекере DVO (ГТРК "Культура").
Награда Lumiere Award за лучший документальный телефильм с использованием 3D-графики - 3D Creative Arts Awards 2014.

качество: DVB
формат: MKV
Видео: MPEG Video 2, 720x576@768x576 (4:3), 25 fps, ~2294 kbps avg, 0.221 bit/pixel
Аудио: MPEG Audio 2, 2 ch, 48 kHz, ~192.00 kbps avg

MediaInfo

Общее
Уникальный идентификатор : 243874399340596763729485676178670910032 (0xB7788036C8EC84FD9F45B0CC30307A50)
Полное имя : E:\My Torrents 2\[apreder]Inside_the_Mind_of_Leonardo\[apreder]Inside_the_Mind_of_Leonardo_Pt.1(2013)DVB.mkv
Формат : Matroska
Версия формата : Version 2
Размер файла : 852 Мбайт
Продолжительность : 46 м.
Режим общего битрейта : Переменный
Общий поток : 2536 Кбит/сек
Дата кодирования : UTC 2014-11-09 14:26:53
Программа кодирования : mkvmerge v7.3.0 ('Nouages') 64bit built on Oct 22 2014 18:53:34
Библиотека кодирования : libebml v1.3.0 + libmatroska v1.4.1
Видео
Идентификатор : 1
Формат : MPEG Video
Версия формата : Version 2
Профиль формата : Main@Main
Параметр BVOP формата : Нет
Параметр матрицы формата : Выборочная
Format_Settings_PictureStructure : Frame
Идентификатор кодека : V_MPEG2
Идентификатор кодека/Информация : MPEG 1 or 2 Video
Продолжительность : 46 м.
Вид битрейта : Переменный
Битрейт : 2294 Кбит/сек
Максимальный битрейт : 5438 Кбит/сек
Ширина : 720 пикселей
Высота : 576 пикселей
Соотношение сторон : 4:3
Режим частоты кадров : Постоянный
Частота кадров : 25,000 кадров/сек
Стандарт вещания : PAL
Цветовое пространство : YUV
Субдискретизация насыщенности : 4:2:0
Битовая глубина : 8 бит
Тип развёртки : Чересстрочная
Порядок развёртки : Верхнее поле первое
Метод сжатия : С потерями
Бит/(Пиксели*Кадры) : 0.221
Временной код первого кадра : 00:00:00:00
Оригинал временного кода : Group of pictures header
Размер потока : 771 Мбайт (90%)
Default : Да
Forced : Нет
Аудио
Идентификатор : 2
Формат : MPEG Audio
Версия формата : Version 1
Профиль формата : Layer 2
Идентификатор кодека : A_MPEG/L2
Идентификатор кодека/Подсказка : MP2
Продолжительность : 46 м.
Вид битрейта : Постоянный
Битрейт : 192 Кбит/сек
Каналы : 2 канала
Частота : 48,0 КГц
Метод сжатия : С потерями
Размер потока : 64,5 Мбайт (8%)
Язык : Russian
Default : Да
Forced : Нет

Скриншоты


Резервные скриншоты


-

Внимание! Раздача ведётся путём добавления новых выпусков

Внимание! Раздача ведётся путём добавления новых выпусков; при каждом добавлении создаётся новый торрент. Чтобы начать докачку нового выпуска, пользователям необходимо сделать следующее:
(1) остановить скачивание,
(2) удалить старый торрент у себя из клиента (старые серии удалять не надо),
(3) скачать новый торрент и запустить его у себя в клиенте вместо старого, при этом указать клиенту путь в старую папку куда и должно происходить скачивание новых выпусков.
Ваш клиент при этом должен произвести хеширование (проверку) старой папки (если не производит сам - помогите ему сделать это). В результате он будет докачивать только те выпуски, которых у Вас ещё нет. Старые выпуски при этом не удаляются, а продолжают раздаваться!
Eсли Вы уже удалили старые выпуски, то предотвратить их повторную закачку можно, сняв галочки в соответствующих местах при запуске нового торрента. По возможности, желательно не удалять старые выпуски как можно дольше, чтобы релизёр не только продолжал раздавать старые выпуски, но и смог сконцентрироваться на новых.
-[1'904]
[teatrix.ru].t19427.torrent 
Торрент: Зарегистрирован [ 2016-03-18 12:38 ] · 80A080C3B0E3CF35807511B0472C6DC3D1CD3D00

Скачать .torrent

Скачать

17 KB

Статус: проверено
Скачан: 0 раз
Размер: 1.6 GB
terms.php



Быстрый ответ

Имя:

      
Для отправки сообщений необходимо включить JavaScript
Показать сообщения:    

Текущее время: 04-Дек 23:24

Часовой пояс: UTC + 3


Вы можете начинать темы
Вы можете отвечать на сообщения
Вы не можете редактировать свои сообщения
Вы не можете удалять свои сообщения
Вы не можете голосовать в опросах
Вы не можете прикреплять файлы к сообщениям
Вы можете скачивать файлы