(Baroque sacred) Marc-Antoine Charpentier - Les Antiennes “O” de l’Avent (Les Arts Florissants, William Christie) - 1990, FLAC (image+.cue) lossless


Статистика раздачи [Обновить пиров]
Размер:  234 MB   |    Зарегистрирован:  8 месяцев 21 день   |    Скачан:  0 раз

Полного источника не было: Никогда

Личеров:  15  [  0 KB/s  ]   Подробная статистика пиров
 
   
 
 
 

[Цитировать]

Marc-Antoine Charpentier (1643-1704) - Les Antiennes “O” de l’Avent

Жанр: Baroque sacred
Страна-производитель диска: Made in W. Germany
Год издания диска: 1990
Издатель (лейбл): harmonia mundi s.a.
Номер по каталогу: HMC 905124
Дата записи: 1982
Аудиокодек: FLAC
Тип рипа: image+.cue
Битрейт аудио: lossless
Продолжительность: 41'26
Источник: релизер
сайт-источник/ник/другое: Saoshya and Meeting in Music blogspot
Наличие сканов в содержимом раздачи: да
Треклист:

скрытый текст

01. Salut de la vielle des “O”. O salutaris hostia H.36 02:31
02. Premier O. O Sapientia H.37 02:45
03. Second O. O Adonai et dux domus Israel H.38 02:28
04. Trosième O. O radix Jesse H.39 02:25
05. Noël pour les instruments H.534, Les Bourgeois de Chastre 02:03
06. Quatrième O. O clavis David H.40 02:18
07. Noël pour les instruments H.534, Où s’en vont ces gays bergers 01:46
08. Cinquième O. O Oriens splendor H.41 02:05
09. Noël pour les instruments H.534, Joseph est bien marié 01:09
10. Sixième O. O rex gentium H.42 01:41
11. Noël pour les instruments H.534, Or nous dites Marie 02:44
12. Septième O. O Emmanuel H.43 02:07
13. In Nativitatum D.N.J.C. canticum H.414, Praeludium 00:58
14. Récitatif de l’Evangéliste 01:40
15. Air de l’Ange. Choeur des Bergers 03:35
16. Ritournelle 01:18
17. Récitatif de l’Evangéliste 01:13
18. Air d’un berger et choeur 06:29
Исполнители:

скрытый текст

Marc-Antoine Charpentier (1643-1704)
Les Antiennes “O” de l’Avent
Les Arts Florissants
William Christie - conductor

Лог создания рипа

Exact Audio Copy V0.99 prebeta 4 from 23. January 2008
EAC extraction logfile from 13. December 2013, 16:22
Les Arts Florissants, William Christie / Marc-Antoine Charpentier - Les Antiennes “O” de l’Avent
Used drive : SONY DVD-ROM DDU1615 Adapter: 0 ID: 0
Read mode : Secure
Utilize accurate stream : Yes
Defeat audio cache : Yes
Make use of C2 pointers : No
Read offset correction : 6
Overread into Lead-In and Lead-Out : No
Fill up missing offset samples with silence : Yes
Delete leading and trailing silent blocks : No
Null samples used in CRC calculations : Yes
Used interface : Native Win32 interface for Win NT & 2000
Used output format : User Defined Encoder
Selected bitrate : 1024 kBit/s
Quality : High
Add ID3 tag : No
Command line compressor : C:\Program Files\REACT\REACT.exe
Additional command line options : REACT %o %s %d "%a" "%g" "%t" "%n" "%x" "%y" "%m" "%e" "%f" "%b" %r
TOC of the extracted CD
Track | Start | Length | Start sector | End sector
---------------------------------------------------------
1 | 0:00.32 | 2:31.30 | 32 | 11386
2 | 2:31.62 | 2:45.45 | 11387 | 23806
3 | 5:17.32 | 2:28.30 | 23807 | 34936
4 | 7:45.62 | 2:25.63 | 34937 | 45874
5 | 10:11.50 | 2:03.65 | 45875 | 55164
6 | 12:15.40 | 2:18.60 | 55165 | 65574
7 | 14:34.25 | 1:46.50 | 65575 | 73574
8 | 16:21.00 | 2:05.50 | 73575 | 82999
9 | 18:26.50 | 1:09.20 | 83000 | 88194
10 | 19:35.70 | 1:41.65 | 88195 | 95834
11 | 21:17.60 | 2:44.55 | 95835 | 108189
12 | 24:02.40 | 2:07.42 | 108190 | 117756
13 | 26:10.07 | 0:58.45 | 117757 | 122151
14 | 27:08.52 | 1:40.40 | 122152 | 129691
15 | 28:49.17 | 3:35.65 | 129692 | 145881
16 | 32:25.07 | 1:18.18 | 145882 | 151749
17 | 33:43.25 | 1:13.60 | 151750 | 157284
18 | 34:57.10 | 6:29.47 | 157285 | 186506
Range status and errors
Selected range
Filename L:\Stereo Culture Square\HMC905124 Marc-Antoine Charpentier - Les Antiennes 'O' de l'Avent (Les Arts Florissants, William Christie)\CDImage\Charpentier - Les Antiennes 'O' de l'Avent - Les Arts Florissants.wav
Peak level 100.0 %
Range quality 100.0 %
Test CRC 44C15B59
Copy CRC 44C15B59
Copy OK
No errors occurred
AccurateRip summary
Track 1 accurately ripped (confidence 8) [6A1342E0]
Track 2 accurately ripped (confidence 8) [39536433]
Track 3 accurately ripped (confidence 8) [4A903C1A]
Track 4 accurately ripped (confidence 8) [985C8A1C]
Track 5 accurately ripped (confidence 8) [14743AD8]
Track 6 accurately ripped (confidence 8) [9E4DDDA8]
Track 7 accurately ripped (confidence 8) [365CFF02]
Track 8 accurately ripped (confidence 8) [477AB827]
Track 9 accurately ripped (confidence 8) [0B0645A4]
Track 10 accurately ripped (confidence 8) [BD2ABF34]
Track 11 accurately ripped (confidence 8) [DDBD4A04]
Track 12 accurately ripped (confidence 8) [2D716064]
Track 13 accurately ripped (confidence 8) [1E9CA1B5]
Track 14 accurately ripped (confidence 8) [196FBA21]
Track 15 accurately ripped (confidence 8) [CEDFE814]
Track 16 accurately ripped (confidence 8) [2A678402]
Track 17 accurately ripped (confidence 8) [3BE508F1]
Track 18 accurately ripped (confidence 8) [8B74EFB3]
All tracks accurately ripped
End of status report

Содержание индексной карты (.CUE)

REM GENRE Baroque
REM DATE 1982
REM DISCID FE09B612
REM COMMENT "ExactAudioCopy v0.99pb4"
PERFORMER "Les Arts Florissants, William Christie"
TITLE "Marc-Antoine Charpentier - Les Antiennes “O” de l’Avent"
FILE "Charpentier - Les Antiennes 'O' de l'Avent - Les Arts Florissants.flac" WAVE
TRACK 01 AUDIO
TITLE "Salut de la vielle des “O”. O salutaris hostia H.36"
PERFORMER "Les Arts Florissants, William Christie"
INDEX 00 00:00:00
INDEX 01 00:00:32
TRACK 02 AUDIO
TITLE "Premier O. O Sapientia H.37"
PERFORMER "Les Arts Florissants, William Christie"
INDEX 00 02:29:72
INDEX 01 02:31:62
TRACK 03 AUDIO
TITLE "Second O. O Adonai et dux domus Israel H.38"
PERFORMER "Les Arts Florissants, William Christie"
INDEX 00 05:15:72
INDEX 01 05:17:32
TRACK 04 AUDIO
TITLE "Trosième O. O radix Jesse H.39"
PERFORMER "Les Arts Florissants, William Christie"
INDEX 00 07:43:72
INDEX 01 07:45:62
TRACK 05 AUDIO
TITLE "Noël pour les instruments H.534, Les Bourgeois de Chastre"
PERFORMER "Les Arts Florissants, William Christie"
INDEX 00 10:08:22
INDEX 01 10:11:50
TRACK 06 AUDIO
TITLE "Quatrième O. O clavis David H.40"
PERFORMER "Les Arts Florissants, William Christie"
INDEX 00 12:15:37
INDEX 01 12:15:40
TRACK 07 AUDIO
TITLE "Noël pour les instruments H.534, Où s’en vont ces gays bergers"
PERFORMER "Les Arts Florissants, William Christie"
INDEX 00 14:31:15
INDEX 01 14:34:25
TRACK 08 AUDIO
TITLE "Cinquième O. O Oriens splendor H.41"
PERFORMER "Les Arts Florissants, William Christie"
INDEX 00 16:20:72
INDEX 01 16:21:00
TRACK 09 AUDIO
TITLE "Noël pour les instruments H.534, Joseph est bien marié"
PERFORMER "Les Arts Florissants, William Christie"
INDEX 00 18:20:67
INDEX 01 18:26:50
TRACK 10 AUDIO
TITLE "Sixième O. O rex gentium H.42"
PERFORMER "Les Arts Florissants, William Christie"
INDEX 00 19:35:67
INDEX 01 19:35:70
TRACK 11 AUDIO
TITLE "Noël pour les instruments H.534, Or nous dites Marie"
PERFORMER "Les Arts Florissants, William Christie"
INDEX 00 21:16:35
INDEX 01 21:17:60
TRACK 12 AUDIO
TITLE "Septième O. O Emmanuel H.43"
PERFORMER "Les Arts Florissants, William Christie"
INDEX 00 24:01:65
INDEX 01 24:02:40
TRACK 13 AUDIO
TITLE "In Nativitatum D.N.J.C. canticum H.414, Praeludium"
PERFORMER "Les Arts Florissants, William Christie"
INDEX 00 26:00:47
INDEX 01 26:10:07
TRACK 14 AUDIO
TITLE "In Nativitatum D.N.J.C. canticum H.414, Récitatif de l’Evangéliste"
PERFORMER "Les Arts Florissants, William Christie"
INDEX 00 27:08:50
INDEX 01 27:08:52
TRACK 15 AUDIO
TITLE "In Nativitatum D.N.J.C. canticum H.414, Air de l’Ange. Choeur des Bergers"
PERFORMER "Les Arts Florissants, William Christie"
INDEX 01 28:49:17
TRACK 16 AUDIO
TITLE "In Nativitatum D.N.J.C. canticum H.414, Ritournelle"
PERFORMER "Les Arts Florissants, William Christie"
INDEX 01 32:25:07
TRACK 17 AUDIO
TITLE "In Nativitatum D.N.J.C. canticum H.414, Récitatif de l’Evangéliste"
PERFORMER "Les Arts Florissants, William Christie"
INDEX 00 33:41:42
INDEX 01 33:43:25
TRACK 18 AUDIO
TITLE "In Nativitatum D.N.J.C. canticum H.414, Air d’un berger et choeur"
PERFORMER "Les Arts Florissants, William Christie"
INDEX 01 34:57:10
[teatrix.ru].t19428.torrent 
Торрент: Зарегистрирован [ 2016-03-18 12:46 ] · 0F0250E532BF37B63B27CC26D91D6EB60D6562C4

Скачать .torrent

Скачать

20 KB

Статус: проверено
Скачан: 0 раз
Размер: 234 MB
terms.php



Быстрый ответ

Имя:

      
Для отправки сообщений необходимо включить JavaScript
Показать сообщения:    

Текущее время: 08-Дек 23:10

Часовой пояс: UTC + 3


Вы можете начинать темы
Вы можете отвечать на сообщения
Вы не можете редактировать свои сообщения
Вы не можете удалять свои сообщения
Вы не можете голосовать в опросах
Вы не можете прикреплять файлы к сообщениям
Вы можете скачивать файлы