(Baroque sacred) Marc-Antoine Charpentier - Messe de Minuit ; Noels pour les instruments ; In nativitatem Domini canticum (Ensemble Vocal de Nantes, Ensemble Instrumental, Paul Colleaux) - 1985, FLAC (image+.cue) lossless


Статистика раздачи [Обновить пиров]
Размер:  289 MB   |    Зарегистрирован:  8 месяцев 20 дней   |    Скачан:  0 раз

Полного источника не было: Никогда

 
   
 
 
 

[Цитировать]

Marc-Antoine Charpentier (1643-1704) - Messe de Minuit; Noëls pour les instruments ; In nativitatem Domini canticum

Жанр: Baroque sacred
Страна-производитель диска: Made in France
Год издания диска: 1985
Издатель (лейбл): Arion
Номер по каталогу: ARN 68015
Дата записи: 1985
Аудиокодек: FLAC
Тип рипа: image+.cue
Битрейт аудио: lossless
Продолжительность: 42'44
Источник: релизер
сайт-источник/ник/другое: Saoshya and Meeting in Music blogspot
Наличие сканов в содержимом раздачи: да
Треклист:

скрытый текст

01. Messe de Minuit H.9 24:48
02. In navitatem Domini canticum H.314 03:54
03. Noëls pour les instruments H.534, Où s’en vont ces gays bergers 01:38
04. Noëls pour les instruments H.534, Or, nous dites Marie 03:27
05. Nicolas Lebègue. Puer nobis nascitur (3ème Livre d’orgue) 02:15
06. Noëls pour les instruments H.534, Joseph est bien marié 01:44
07. Noëls pour les instruments H.531, O Créateur 02:00
08. Nicolas Lebègue. Laissez paistre vos bestes (3ème Livre d’orgue) 01:18
09. Noëls pour les instruments H.534, Les Bourgeois de Chastre 01:35
Исполнители:

скрытый текст

Marc-Antoine Charpentier (1643-1704)
Messe de Minuit
Noëls pour les instruments
In nativitatem Domini canticum
Ensemble Vocal de Nantes
Ensemble Instrumental
Paul Colléaux директор

Лог создания рипа

Exact Audio Copy V0.99 prebeta 4 from 23. January 2008
EAC extraction logfile from 13. December 2013, 17:07
Ensemble Vocal de Nantes, Ensemble Instrumental, Paul Colléaux / Marc-Antoine Charpentier - Messe de Minuit, Noëls, In nativitatem Domini canticum
Used drive : SONY DVD-ROM DDU1615 Adapter: 0 ID: 0
Read mode : Secure
Utilize accurate stream : Yes
Defeat audio cache : Yes
Make use of C2 pointers : No
Read offset correction : 6
Overread into Lead-In and Lead-Out : No
Fill up missing offset samples with silence : Yes
Delete leading and trailing silent blocks : No
Null samples used in CRC calculations : Yes
Used interface : Native Win32 interface for Win NT & 2000
Used output format : User Defined Encoder
Selected bitrate : 1024 kBit/s
Quality : High
Add ID3 tag : No
Command line compressor : C:\Program Files\REACT\REACT.exe
Additional command line options : REACT %o %s %d "%a" "%g" "%t" "%n" "%x" "%y" "%m" "%e" "%f" "%b" %r
TOC of the extracted CD
Track | Start | Length | Start sector | End sector
---------------------------------------------------------
1 | 0:00.33 | 24:48.65 | 33 | 111697
2 | 24:49.23 | 3:54.60 | 111698 | 129307
3 | 28:44.08 | 1:38.42 | 129308 | 136699
4 | 30:22.50 | 3:27.40 | 136700 | 152264
5 | 33:50.15 | 2:15.58 | 152265 | 162447
6 | 36:05.73 | 1:44.55 | 162448 | 170302
7 | 37:50.53 | 2:00.12 | 170303 | 179314
8 | 39:50.65 | 1:18.20 | 179315 | 185184
9 | 41:09.10 | 1:35.38 | 185185 | 192347
Range status and errors
Selected range
Filename L:\Stereo Culture Square\ARN68015 Marc-Antoine Charpentier - Messe de Minuit, Noëls, In Nativitatem (Ens. Vocal de Nantes, P. Colléaux)\CDImage\Charpentier - Messe de Minuit, Noëls, In Nativitatem - Ens. Vocal de Nantes.wav
Peak level 77.0 %
Range quality 100.0 %
Test CRC 5501798D
Copy CRC 5501798D
Copy OK
No errors occurred
AccurateRip summary
Track 1 cannot be verified as accurate (confidence 1) [587689EA], AccurateRip returned [B1E6458A]
Track 2 cannot be verified as accurate (confidence 1) [FBD67B1E], AccurateRip returned [A300292D]
Track 3 cannot be verified as accurate (confidence 1) [1B74B541], AccurateRip returned [BAECFB13]
Track 4 cannot be verified as accurate (confidence 1) [9FA766AD], AccurateRip returned [668C3830]
Track 5 cannot be verified as accurate (confidence 1) [8C7BF77E], AccurateRip returned [3E15E66B]
Track 6 cannot be verified as accurate (confidence 1) [9A47A375], AccurateRip returned [E66235EC]
Track 7 cannot be verified as accurate (confidence 1) [05596FF4], AccurateRip returned [2D340BF2]
Track 8 cannot be verified as accurate (confidence 1) [5CD35159], AccurateRip returned [B91A6169]
Track 9 cannot be verified as accurate (confidence 1) [ECD2F33D], AccurateRip returned [5EABC685]
No tracks could be verified as accurate
You may have a different pressing from the one(s) in the database
End of status report

Содержание индексной карты (.CUE)

REM GENRE Baroque
REM DATE 1985
REM DISCID 720A0409
REM COMMENT "ExactAudioCopy v0.99pb4"
PERFORMER "Ensemble Vocal de Nantes, Ensemble Instrumental, Paul Colléaux"
TITLE "Marc-Antoine Charpentier - Messe de Minuit; Noëls; In nativitatem Domini canticum"
FILE "Charpentier - Messe de Minuit, Noëls, In nativitatem - Ens. Vocal de Nantes.flac" WAVE
TRACK 01 AUDIO
TITLE "Messe de Minuit H.9"
PERFORMER "Ensemble Vocal de Nantes, Ensemble Instrumental, Paul Colléaux"
FLAGS PRE
INDEX 00 00:00:00
INDEX 01 00:00:33
TRACK 02 AUDIO
TITLE "In navitatem Domini canticum H.314"
PERFORMER "Ensemble Vocal de Nantes, Ensemble Instrumental, Paul Colléaux"
FLAGS PRE
INDEX 00 24:42:48
INDEX 01 24:49:23
TRACK 03 AUDIO
TITLE "Noëls pour les instruments H.534, Où s’en vont ces gays bergers"
PERFORMER "Ensemble Vocal de Nantes, Ensemble Instrumental, Paul Colléaux"
FLAGS PRE
INDEX 00 28:39:55
INDEX 01 28:44:08
TRACK 04 AUDIO
TITLE "Noëls pour les instruments H.534, Or, nous dites Marie"
PERFORMER "Ensemble Vocal de Nantes, Ensemble Instrumental, Paul Colléaux"
FLAGS PRE
INDEX 00 30:20:35
INDEX 01 30:22:50
TRACK 05 AUDIO
TITLE "Nicolas Lebègue. Puer nobis nascitur (3ème Livre d’orgue)"
PERFORMER "Ensemble Vocal de Nantes, Ensemble Instrumental, Paul Colléaux"
FLAGS PRE
INDEX 00 33:48:13
INDEX 01 33:50:15
TRACK 06 AUDIO
TITLE "Noëls pour les instruments H.534, Joseph est bien marié"
PERFORMER "Ensemble Vocal de Nantes, Ensemble Instrumental, Paul Colléaux"
FLAGS PRE
INDEX 00 36:02:73
INDEX 01 36:05:73
TRACK 07 AUDIO
TITLE "Noëls pour les instruments H.531, O Créateur"
PERFORMER "Ensemble Vocal de Nantes, Ensemble Instrumental, Paul Colléaux"
FLAGS PRE
INDEX 00 37:47:53
INDEX 01 37:50:53
TRACK 08 AUDIO
TITLE "Nicolas Lebègue. Laissez paistre vos bestes (3ème Livre d’orgue)"
PERFORMER "Ensemble Vocal de Nantes, Ensemble Instrumental, Paul Colléaux"
FLAGS PRE
INDEX 00 39:49:40
INDEX 01 39:50:65
TRACK 09 AUDIO
TITLE "Noëls pour les instruments H.534, Les Bourgeois de Chastre"
PERFORMER "Ensemble Vocal de Nantes, Ensemble Instrumental, Paul Colléaux"
FLAGS PRE
INDEX 00 41:04:25
INDEX 01 41:09:10
[teatrix.ru].t19429.torrent 
Торрент: Зарегистрирован [ 2016-03-18 12:38 ] · F7BF0765935F1B42DA2A184ACEB077D143E34047

Скачать .torrent

Скачать

13 KB

Статус: проверено
Скачан: 0 раз
Размер: 289 MB
terms.php



Быстрый ответ

Имя:

      
Для отправки сообщений необходимо включить JavaScript
Показать сообщения:    

Текущее время: 07-Дек 17:26

Часовой пояс: UTC + 3


Вы можете начинать темы
Вы можете отвечать на сообщения
Вы не можете редактировать свои сообщения
Вы не можете удалять свои сообщения
Вы не можете голосовать в опросах
Вы не можете прикреплять файлы к сообщениям
Вы можете скачивать файлы