(Classical / Orchestral) Richard Wagner - Opera Preludes (Die Meistersinger von Nurnberg, Parsifal, Lohengrin, Tristan und Isolde) • Siegfried-Idyll (Concertgebouworkest, Bernard Haitink, 1974) - 2001, FLAC (tracks+.cue) lossless


 

[Цитировать]

Richard Wagner | Рихард Вагнер
(1813–1883)



Opera Preludes | Siegfried-Idyll


Concertgebouworkest (Amsterdam)Bernard Haitink conductor


Жанр: Classical / Orchestral
Дата и место записи: Concertgebouw, Grote Zaal, Amsterdam, December 1974
Формат записи: ADD, Stereo
Год издания диска: 2001
Издатель (лейбл): Philips
Номер по каталогу: 468 184-2
Аудиокодек: FLAC
Тип рипа: tracks+.cue
Битрейт аудио: lossless
Продолжительность: 1:09:12
Наличие сканов в содержимом раздачи: да
Источник: LzTr
Релизёр: Yeroun


Tracklist / Треклист
«Die Meistersinger von Nürnberg»
Vorspiel zum 1. Aufzug - 9:53
«Parsifal»
Vorspiel - 11:31
«Lohengrin» - 12:45
Vorspiel zum 1. Aufzug - 9:23
  • Vorspiel zum 3. Aufzug - 3:22
    «Tristan und Isolde»
    Einleitung zum 1. Aufzug und Isoldes Liebestod - 16:48
    Siegfried-Idyll - 18:15

    -

    EAC log / Отчёт EAC

    Exact Audio Copy V1.0 beta 3 from 29. August 2011
    EAC extraction logfile from 7. March 2014, 18:21
    Wagner / Opera Preludes, Siegfried Idyll - Royal Concertgebouw Orchestra, Bernard Haitink
    Used drive : TSSTcorpCDDVDW SH-216BB Adapter: 0 ID: 0
    Read mode : Secure
    Utilize accurate stream : Yes
    Defeat audio cache : Yes
    Make use of C2 pointers : No
    Read offset correction : 6
    Overread into Lead-In and Lead-Out : No
    Fill up missing offset samples with silence : Yes
    Delete leading and trailing silent blocks : No
    Null samples used in CRC calculations : Yes
    Used interface : Installed external ASPI interface
    Gap handling : Appended to previous track
    Used output format : User Defined Encoder
    Selected bitrate : 896 kBit/s
    Quality : High
    Add ID3 tag : No
    Command line compressor : C:\Program Files\Exact Audio Copy\Flac\flac.exe
    Additional command line options : -6 -V -T "ARTIST=%artist%" -T "TITLE=%title%" -T "ALBUM=%albumtitle%" -T "DATE=%year%" -T "PERFORMER=%albuminterpret%" -T "TRACKNUMBER=%tracknr%" -T "TOTALTRACKS=%numtracks%" -T "GENRE=%genre%" -T "COMPOSER=%composer%" -T "ALBUMARTIST=%albumartist%" -T "ALBUM ARTIST=%albumartist%" -T "COMMENT=EAC Secure Mode, Test & Copy, AccurateRip, FLAC -6" %source%
    TOC of the extracted CD
    Track | Start | Length | Start sector | End sector
    ---------------------------------------------------------
    1 | 0:00.32 | 9:53.00 | 32 | 44506
    2 | 9:53.32 | 11:31.00 | 44507 | 96331
    3 | 21:24.32 | 9:23.00 | 96332 | 138556
    4 | 30:47.32 | 3:22.00 | 138557 | 153706
    5 | 34:09.32 | 16:48.00 | 153707 | 229306
    6 | 50:57.32 | 18:15.00 | 229307 | 311431
    Track 1
    Filename D:\EAC extraction\01 - Die Meistersinger von Nurnberg - Prelude.wav
    Pre-gap length 0:00:02.32
    Peak level 95.0 %
    Extraction speed 2.2 X
    Track quality 100.0 %
    Test CRC 0D6ED551
    Copy CRC 0D6ED551
    Cannot be verified as accurate (confidence 2) [9C6D31FE], AccurateRip returned [A8B73278] (AR v2)
    Copy OK
    Track 2
    Filename D:\EAC extraction\02 - Parsifal - Prelude.wav
    Pre-gap length 0:00:07.00
    Peak level 65.2 %
    Extraction speed 2.3 X
    Track quality 100.0 %
    Test CRC 845A048A
    Copy CRC 845A048A
    Cannot be verified as accurate (confidence 2) [246EE769], AccurateRip returned [9F1E4130] (AR v2)
    Copy OK
    Track 3
    Filename D:\EAC extraction\03 - Lohengrin - Prelude to Act 1.wav
    Pre-gap length 0:00:08.00
    Peak level 74.0 %
    Extraction speed 2.2 X
    Track quality 100.0 %
    Test CRC F7166EF8
    Copy CRC F7166EF8
    Cannot be verified as accurate (confidence 2) [A213D777], AccurateRip returned [BC991D51] (AR v2)
    Copy OK
    Track 4
    Filename D:\EAC extraction\04 - Lohengrin - Prelude to Act 3.wav
    Pre-gap length 0:00:07.00
    Peak level 74.2 %
    Extraction speed 2.0 X
    Track quality 100.0 %
    Test CRC A0896596
    Copy CRC A0896596
    Cannot be verified as accurate (confidence 2) [FFA81782], AccurateRip returned [06B87AB7] (AR v2)
    Copy OK
    Track 5
    Filename D:\EAC extraction\05 - Tristan und Isolde - Prelude & Liebestod.wav
    Pre-gap length 0:00:09.00
    Peak level 90.8 %
    Extraction speed 2.3 X
    Track quality 100.0 %
    Test CRC 9E5254C3
    Copy CRC 9E5254C3
    Cannot be verified as accurate (confidence 2) [303FD22A], AccurateRip returned [6B2B7417] (AR v2)
    Copy OK
    Track 6
    Filename D:\EAC extraction\06 - Siegfried Idyll.wav
    Pre-gap length 0:00:09.00
    Peak level 72.2 %
    Extraction speed 2.3 X
    Track quality 100.0 %
    Test CRC 1D7485B1
    Copy CRC 1D7485B1
    Cannot be verified as accurate (confidence 2) [42711516], AccurateRip returned [95402097] (AR v2)
    Copy OK
    No tracks could be verified as accurate
    You may have a different pressing from the one(s) in the database
    No errors occurred
    End of status report
    ==== Log checksum D029F050BFD59A4E2157F2E26DA9444F35AED29178C1BD5C812B86637FB6FDE9 ====

    auCDtect Task Manager log / Отчёт auCDtect Task Manager

    -----------------------
    DON'T MODIFY THIS FILE
    -----------------------
    PERFORMER: auCDtect Task Manager, ver. 1.5.1RC3 build 1.5.1.4
    Copyright (c) 2008-2010 y-soft. All rights reserved
    ANALYZER: auCDtect: CD records authenticity detector, version 0.8.2
    Copyright (c) 2004 Oleg Berngardt. All rights reserved.
    Copyright (c) 2004 Alexander Djourik. All rights reserved.
    FILE: 06 - Siegfried-Idyll.flac
    Size: 78718725 Hash: 66615FD13D497C36D59EA1219F336451 Accuracy: -m0
    Conclusion: CDDA 100%
    Signature: 61D0AC1EE3EB9911238394225598C14F0A619E2A
    FILE: 05 - ''Tristan und Isolde'' - Einleitung zum 1. Aufzug und Isoldes Liebestod.flac
    Size: 76870863 Hash: 5FA6805E23EA6AAD3713FA7FAC9B388E Accuracy: -m0
    Conclusion: CDDA 100%
    Signature: 6AA52F15F0991D4B12171BD9AEE2445AC128CF34
    FILE: 04 - ''Lohengrin'' - Vorspiel zum 3. Aufzug.flac
    Size: 19148964 Hash: EC804B3BBE9A09B2263DA167DA592ADB Accuracy: -m0
    Conclusion: CDDA 100%
    Signature: CE426812274F92D3C49D0E758072643995A68F33
    FILE: 03 - ''Lohengrin'' - Vorspiel zum 1. Aufzug.flac
    Size: 41787949 Hash: 3B48F8E1B2419B0623664CD9E8E89246 Accuracy: -m0
    Conclusion: CDDA 100%
    Signature: 503CC3E09075F7C0832AF9674CB1812BB9B5D634
    FILE: 02 - ''Parsifal'' - Vorspiel.flac
    Size: 48132432 Hash: E4BF92430E25FD8BF8DF05938574C9D2 Accuracy: -m0
    Conclusion: CDDA 100%
    Signature: 5890C8F283F7ED562F9B47677AF6BE5296A728A1
    FILE: 01 - ''Die Meistersinger von Nuernberg'' - Vorspiel zum 1. Aufzug.flac
    Size: 55406064 Hash: F20CA751802F8BA89EB22D47BDFD3F32 Accuracy: -m0
    Conclusion: CDDA 100%
    Signature: D61CA49806B83C6949411A08501F316706D25BB2

    CUETools log / Отчёт CUETools

    [CUETools log; Date: 10.11.2014 01:38:16; Version: 2.1.4]
    Pregap length 00:00:32.
    [AccurateRip ID: 000edc32-005035df-55103806] found.
    Track [ CRC | V2 ] Status
    01 [97a2194d|9c6d31fe] (0+0/2) No match
    02 [11ca6c7f|246ee769] (0+0/2) No match
    03 [61c12372|a213d777] (0+0/2) No match
    04 [93926f9c|ffa81782] (0+0/2) No match
    05 [a9a0fba5|303fd22a] (0+0/2) No match
    06 [7e37ce9f|42711516] (0+0/2) No match
    Offsetted by -698:
    01 [a8b73278] (2/2) Accurately ripped
    02 [9f1e4130] (2/2) Accurately ripped
    03 [bc991d51] (2/2) Accurately ripped
    04 [06b87ab7] (2/2) Accurately ripped
    05 [6b2b7417] (2/2) Accurately ripped
    06 [95402097] (2/2) Accurately ripped
    Offsetted by -697:
    01 [aa12d667] (0/2) No match (V2 was not tested)
    02 [04550a67] (0/2) No match (V2 was not tested)
    03 [0f72363b] (0/2) No match (V2 was not tested)
    04 [3a002ef1] (0/2) No match (V2 was not tested)
    05 [3b119d52] (0/2) No match (V2 was not tested)
    06 [d274061c] (0/2) No match (V2 was not tested)
    Offsetted by -16:
    01 [9530f31e] (0/2) No match (V2 was not tested)
    02 [62d7a501] (0/2) No match (V2 was not tested)
    03 [6cd87677] (0/2) No match (V2 was not tested)
    04 [e27ce281] (0/2) No match (V2 was not tested)
    05 [d618c953] (0/2) No match (V2 was not tested)
    06 [6baf2367] (0/2) No match (V2 was not tested)
    Track Peak [ CRC32 ] [W/O NULL] [ LOG ]
    -- 95,0 [ED8284CA] [5F26F2D0]
    01 95,0 [0D6ED551] [9F780727] CRC32
    02 65,2 [845A048A] [595844D3] CRC32
    03 74,0 [F7166EF8] [F2A21F71] CRC32
    04 74,2 [A0896596] [AD2B26C7] CRC32
    05 90,8 [9E5254C3] [0F356F01] CRC32
    06 72,2 [1D7485B1] [A12FE397] CRC32

    CUE sheet

    TITLE "Richard Wagner: Opera Preludes • Siegfried-Idyll"
    PERFORMER "Bernard Haitink"
    REM GENRE Classical
    REM DISCID 55103806
    REM COMMENT "ExactAudioCopy v1.0b3"
    CATALOG 0028942088627
    FILE "01 - ''Die Meistersinger von Nuernberg'' - Vorspiel zum 1. Aufzug.flac" WAVE
    TRACK 01 AUDIO
    TITLE "«Die Meistersinger von Nürnberg»: Vorspiel zum 1. Aufzug"
    PERFORMER "Concertgebouworkest. Bernard Haitink, conductor"
    REM DATE 1974
    PREGAP 00:00:32
    INDEX 01 00:00:00
    TRACK 02 AUDIO
    TITLE "«Parsifal»: Vorspiel"
    PERFORMER "Concertgebouworkest. Bernard Haitink, conductor"
    REM DATE 1974
    INDEX 00 09:46:00
    FILE "02 - ''Parsifal'' - Vorspiel.flac" WAVE
    INDEX 01 00:00:00
    TRACK 03 AUDIO
    TITLE "«Lohengrin»: Vorspiel zum 1. Aufzug"
    PERFORMER "Concertgebouworkest. Bernard Haitink, conductor"
    REM DATE 1974
    INDEX 00 11:23:00
    FILE "03 - ''Lohengrin'' - Vorspiel zum 1. Aufzug.flac" WAVE
    INDEX 01 00:00:00
    TRACK 04 AUDIO
    TITLE "«Lohengrin»: Vorspiel zum 3. Aufzug"
    PERFORMER "Concertgebouworkest. Bernard Haitink, conductor"
    REM DATE 1974
    INDEX 00 09:16:00
    FILE "04 - ''Lohengrin'' - Vorspiel zum 3. Aufzug.flac" WAVE
    INDEX 01 00:00:00
    TRACK 05 AUDIO
    TITLE "«Tristan und Isolde»: Einleitung zum 1. Aufzug und Isoldes Liebestod"
    PERFORMER "Concertgebouworkest. Bernard Haitink, conductor"
    REM DATE 1974
    INDEX 00 03:13:00
    FILE "05 - ''Tristan und Isolde'' - Einleitung zum 1. Aufzug und Isoldes Liebestod.flac" WAVE
    INDEX 01 00:00:00
    INDEX 02 10:18:00
    TRACK 06 AUDIO
    TITLE "Siegfried-Idyll"
    PERFORMER "Concertgebouworkest. Bernard Haitink, conductor"
    REM DATE 1974
    INDEX 00 16:39:00
    FILE "06 - Siegfried-Idyll.flac" WAVE
    INDEX 01 00:00:00
    -
    Richard Wagner — каталог раздач на rutracker.orgВсе мои раздачи / All my releases



  • Показать сообщения:    

    Текущее время: 06-Дек 17:03

    Часовой пояс: UTC + 3


    Вы не можете начинать темы
    Вы не можете отвечать на сообщения
    Вы не можете редактировать свои сообщения
    Вы не можете удалять свои сообщения
    Вы не можете голосовать в опросах
    Вы не можете прикреплять файлы к сообщениям
    Вы не можете скачивать файлы