(Classical) Philip Glass - Dublin Guitar Quartet Performs Philip Glass: String Quartets Nos.2-5 - 2014, FLAC (tracks+.cue) lossless


 

[Цитировать]

Philip Glass - Dublin Guitar Quartet Performs Philip Glass: String Quartets Nos.2-5
Жанр: Classical
Страна-производитель диска: USA
Год издания диска: 2014
Издатель (лейбл): Orange Mountain Music
Номер по каталогу: OMM 0092
Аудиокодек: FLAC
Тип рипа: tracks+.cue
Битрейт аудио: lossless
Источник: скачано с
сайт-источник/ник/другое: What.cd
Наличие сканов в содержимом раздачи: да
Треклист:
String Quartet No.2 Company
1. Movement I
2. Movement II
3. Movement III
4. Movement IV
String Quartet No.5
5. Movement I
6. Movement II
7. Movement III
8. Movement IV
9. Movement V
String Quartet No.4 Buczak
10. Movement I
11. Movement II
12. Movement III
String Quartet No.3 Mishima
13. I Award Montage
14. II Novmber 25 - Ichigaya
15. III 1934 Grandmother and Kimitake
16. IV Bodybuilding
17. V Blood Oath
18. VI Closing
Исполнители:
Dublin Guitar Quartet

Log

]
Exact Audio Copy V1.0 beta 3 from 29. August 2011
EAC extraction logfile from 10. October 2014, 14:06
Dublin Guitar Quartet / Performs Philip Glass
Used drive : TSSTcorpCDDVDW TS-L633C Adapter: 1 ID: 0
Read mode : Secure
Utilize accurate stream : Yes
Defeat audio cache : Yes
Make use of C2 pointers : No
Read offset correction : 6
Overread into Lead-In and Lead-Out : No
Fill up missing offset samples with silence : Yes
Delete leading and trailing silent blocks : No
Null samples used in CRC calculations : Yes
Used interface : Native Win32 interface for Win NT & 2000
Gap handling : Appended to previous track
Used output format : User Defined Encoder
Selected bitrate : 896 kBit/s
Quality : High
Add ID3 tag : No
Command line compressor : C:\Program Files (x86)\Exact Audio Copy\FLAC\FLAC.EXE
Additional command line options : -6 -V -T "ARTIST=%artist%" -T "TITLE=%title%" -T "ALBUM=%albumtitle%" -T "DATE=%year%" -T "TRACKNUMBER=%tracknr%" -T "GENRE=%genre%" -T "COMMENT=%comment%" -T "BAND=%albuminterpret%" -T "ALBUMARTIST=%albuminterpret%" -T "COMPOSER=%composer%" %haslyrics%--tag-from-file=LYRICS="%lyricsfile%"%haslyrics% -T "DISCNUMBER=%cdnumber%" -T "TOTALDISCS=%totalcds%" -T "TOTALTRACKS=%numtracks%" %hascover%--picture="%coverfile%"%hascover% %source% -o %dest%
TOC of the extracted CD
Track | Start | Length | Start sector | End sector
---------------------------------------------------------
1 | 0:00.00 | 2:20.03 | 0 | 10502
2 | 2:20.03 | 1:46.16 | 10503 | 18468
3 | 4:06.19 | 1:49.31 | 18469 | 26674
4 | 5:55.50 | 2:16.11 | 26675 | 36885
5 | 8:11.61 | 1:12.74 | 36886 | 42359
6 | 9:24.60 | 3:01.50 | 42360 | 55984
7 | 12:26.35 | 6:11.70 | 55985 | 83879
8 | 18:38.30 | 5:03.53 | 83880 | 106657
9 | 23:42.08 | 7:39.50 | 106658 | 141132
10 | 31:21.58 | 8:16.25 | 141133 | 178357
11 | 39:38.08 | 6:11.66 | 178358 | 206248
12 | 45:49.74 | 8:35.31 | 206249 | 244904
13 | 54:25.30 | 4:17.69 | 244905 | 264248
14 | 58:43.24 | 1:36.37 | 264249 | 271485
15 | 60:19.61 | 3:30.06 | 271486 | 287241
16 | 63:49.67 | 1:50.25 | 287242 | 295516
17 | 65:40.17 | 3:32.62 | 295517 | 311478
18 | 69:13.04 | 3:39.66 | 311479 | 327969
Track 1
Filename E:\Music\Dublin Guitar Quartet\Dublin Guitar Quartet - Performs Phillip Glass (flac)\01 - String Quartet No. 2 'Company' (1984) - I - Dublin Guitar Quartet.wav
Pre-gap length 0:00:02.00
Peak level 98.8 %
Extraction speed 2.4 X
Track quality 100.0 %
Test CRC B025468E
Copy CRC B025468E
Accurately ripped (confidence 1) [6A4F6B2B] (AR v2)
Copy OK
Track 2
Filename E:\Music\Dublin Guitar Quartet\Dublin Guitar Quartet - Performs Phillip Glass (flac)\02 - String Quartet No. 2 'Company' (1984) - II - Dublin Guitar Quartet.wav
Peak level 98.8 %
Extraction speed 1.7 X
Track quality 99.8 %
Test CRC 4B8FC640
Copy CRC 4B8FC640
Accurately ripped (confidence 1) [0E67828A] (AR v2)
Copy OK
Track 3
Filename E:\Music\Dublin Guitar Quartet\Dublin Guitar Quartet - Performs Phillip Glass (flac)\03 - String Quartet No. 2 'Company' (1984) - III - Dublin Guitar Quartet.wav
Peak level 98.8 %
Extraction speed 2.4 X
Track quality 100.0 %
Test CRC 8E5040D3
Copy CRC 8E5040D3
Accurately ripped (confidence 1) [4BDEE8F3] (AR v2)
Copy OK
Track 4
Filename E:\Music\Dublin Guitar Quartet\Dublin Guitar Quartet - Performs Phillip Glass (flac)\04 - String Quartet No. 2 'Company' (1984) - IV - Dublin Guitar Quartet.wav
Peak level 93.9 %
Extraction speed 2.6 X
Track quality 100.0 %
Test CRC 73D560A9
Copy CRC 73D560A9
Accurately ripped (confidence 1) [01D8FC33] (AR v2)
Copy OK
Track 5
Filename E:\Music\Dublin Guitar Quartet\Dublin Guitar Quartet - Performs Phillip Glass (flac)\05 - String Quartet No. 5 (1991) - I - Dublin Guitar Quartet.wav
Peak level 87.6 %
Extraction speed 2.3 X
Track quality 100.0 %
Test CRC 4AE2DF7C
Copy CRC 4AE2DF7C
Accurately ripped (confidence 1) [166B3D14] (AR v2)
Copy OK
Track 6
Filename E:\Music\Dublin Guitar Quartet\Dublin Guitar Quartet - Performs Phillip Glass (flac)\06 - String Quartet No. 5 (1991) - II - Dublin Guitar Quartet.wav
Peak level 98.8 %
Extraction speed 3.0 X
Track quality 100.0 %
Test CRC 9BDA831C
Copy CRC 9BDA831C
Accurately ripped (confidence 1) [26F76394] (AR v2)
Copy OK
Track 7
Filename E:\Music\Dublin Guitar Quartet\Dublin Guitar Quartet - Performs Phillip Glass (flac)\07 - String Quartet No. 5 (1991) - III - Dublin Guitar Quartet.wav
Peak level 98.8 %
Extraction speed 3.6 X
Track quality 100.0 %
Test CRC F15252D6
Copy CRC F15252D6
Accurately ripped (confidence 1) [2D3D8362] (AR v2)
Copy OK
Track 8
Filename E:\Music\Dublin Guitar Quartet\Dublin Guitar Quartet - Performs Phillip Glass (flac)\08 - String Quartet No. 5 (1991) - IV - Dublin Guitar Quartet.wav
Peak level 98.8 %
Extraction speed 3.8 X
Track quality 100.0 %
Test CRC DC0AE6F6
Copy CRC DC0AE6F6
Accurately ripped (confidence 1) [09C6937B] (AR v2)
Copy OK
Track 9
Filename E:\Music\Dublin Guitar Quartet\Dublin Guitar Quartet - Performs Phillip Glass (flac)\09 - String Quartet No. 5 (1991) - V - Dublin Guitar Quartet.wav
Peak level 98.8 %
Extraction speed 4.2 X
Track quality 100.0 %
Test CRC 771BE890
Copy CRC 771BE890
Accurately ripped (confidence 1) [62B71624] (AR v2)
Copy OK
Track 10
Filename E:\Music\Dublin Guitar Quartet\Dublin Guitar Quartet - Performs Phillip Glass (flac)\10 - String Quartet No. 4 'Puczak' (1989) - I - Dublin Guitar Quartet.wav
Peak level 98.8 %
Extraction speed 4.1 X
Track quality 99.9 %
Test CRC D421C5ED
Copy CRC D421C5ED
Accurately ripped (confidence 1) [039333B0] (AR v2)
Copy OK
Track 11
Filename E:\Music\Dublin Guitar Quartet\Dublin Guitar Quartet - Performs Phillip Glass (flac)\11 - String Quartet No. 4 'Puczak' (1989) - II - Dublin Guitar Quartet.wav
Peak level 84.1 %
Extraction speed 4.7 X
Track quality 100.0 %
Test CRC E73549F8
Copy CRC E73549F8
Accurately ripped (confidence 1) [3F7A28D7] (AR v2)
Copy OK
Track 12
Filename E:\Music\Dublin Guitar Quartet\Dublin Guitar Quartet - Performs Phillip Glass (flac)\12 - String Quartet No. 4 'Puczak' (1989) - III - Dublin Guitar Quartet.wav
Peak level 98.8 %
Extraction speed 5.1 X
Track quality 100.0 %
Test CRC A2EA1513
Copy CRC A2EA1513
Accurately ripped (confidence 1) [F920E8B7] (AR v2)
Copy OK
Track 13
Filename E:\Music\Dublin Guitar Quartet\Dublin Guitar Quartet - Performs Phillip Glass (flac)\13 - String Quartet No. 3 'Mishima' (1985) - I Award Montage - Dublin Guitar Quartet.wav
Peak level 98.8 %
Extraction speed 4.9 X
Track quality 100.0 %
Test CRC 43C7ABC0
Copy CRC 43C7ABC0
Accurately ripped (confidence 1) [31D93E93] (AR v2)
Copy OK
Track 14
Filename E:\Music\Dublin Guitar Quartet\Dublin Guitar Quartet - Performs Phillip Glass (flac)\14 - String Quartet No. 3 'Mishima' (1985) - II November 25 - Ichigaya - Dublin Guitar Quartet.wav
Peak level 83.9 %
Extraction speed 4.1 X
Track quality 100.0 %
Test CRC 9E0224FC
Copy CRC 9E0224FC
Accurately ripped (confidence 1) [99F0EDF4] (AR v2)
Copy OK
Track 15
Filename E:\Music\Dublin Guitar Quartet\Dublin Guitar Quartet - Performs Phillip Glass (flac)\15 - String Quartet No. 3 'Mishima' (1985) - III 1934 - Grandmother & Kimitake - Dublin Guitar Quartet.wav
Peak level 98.8 %
Extraction speed 4.9 X
Track quality 100.0 %
Test CRC 056264E8
Copy CRC 056264E8
Accurately ripped (confidence 1) [67D55F43] (AR v2)
Copy OK
Track 16
Filename E:\Music\Dublin Guitar Quartet\Dublin Guitar Quartet - Performs Phillip Glass (flac)\16 - String Quartet No. 3 'Mishima' (1985) - IV 1962 - Bodybuilding - Dublin Guitar Quartet.wav
Peak level 98.8 %
Extraction speed 4.4 X
Track quality 100.0 %
Test CRC 999B7776
Copy CRC 999B7776
Accurately ripped (confidence 1) [4FC06494] (AR v2)
Copy OK
Track 17
Filename E:\Music\Dublin Guitar Quartet\Dublin Guitar Quartet - Performs Phillip Glass (flac)\17 - String Quartet No. 3 'Mishima' (1985) - V Blood Oath - Dublin Guitar Quartet.wav
Peak level 98.8 %
Extraction speed 4.1 X
Track quality 99.9 %
Test CRC 2F7745A1
Copy CRC 2F7745A1
Accurately ripped (confidence 1) [F64C52B0] (AR v2)
Copy OK
Track 18
Filename E:\Music\Dublin Guitar Quartet\Dublin Guitar Quartet - Performs Phillip Glass (flac)\18 - String Quartet No. 3 'Mishima' (1985) - VI Mishima,Closing - Dublin Guitar Quartet.wav
Peak level 89.3 %
Extraction speed 5.2 X
Track quality 100.0 %
Test CRC EEC8EACD
Copy CRC EEC8EACD
Accurately ripped (confidence 1) [97AB834D] (AR v2)
Copy OK
All tracks accurately ripped
No errors occurred
End of status report
---- CUETools DB Plugin V2.1.3
[CTDB TOCID: ajn31lhV6goU_YUIyJhiKfJZjFQ-] found, Submit result: ajn31lhV6goU_YUIyJhiKfJZjFQ- has been confirmed
[2bc56a60] (2/2) Accurately ripped
==== Log checksum B30E8CBF992DD5105605E1EAF1138C1CE06831C129A55A77D78A5621BBA5E78F ====
------------------------------------------------------------
Exact Audio Copy V1.0 beta 3 from 29. August 2011
EAC extraction logfile from 10. October 2014, 14:06
Dublin Guitar Quartet / Performs Philip Glass
Used drive : TSSTcorpCDDVDW TS-L633C Adapter: 1 ID: 0
Read mode : Secure
Utilize accurate stream : Yes
Defeat audio cache : Yes
Make use of C2 pointers : No
Read offset correction : 6
Overread into Lead-In and Lead-Out : No
Fill up missing offset samples with silence : Yes
Delete leading and trailing silent blocks : No
Null samples used in CRC calculations : Yes
Used interface : Native Win32 interface for Win NT & 2000
Gap handling : Appended to previous track
Used output format : User Defined Encoder
Selected bitrate : 896 kBit/s
Quality : High
Add ID3 tag : No
Command line compressor : C:\Program Files (x86)\Exact Audio Copy\FLAC\FLAC.EXE
Additional command line options : -6 -V -T "ARTIST=%artist%" -T "TITLE=%title%" -T "ALBUM=%albumtitle%" -T "DATE=%year%" -T "TRACKNUMBER=%tracknr%" -T "GENRE=%genre%" -T "COMMENT=%comment%" -T "BAND=%albuminterpret%" -T "ALBUMARTIST=%albuminterpret%" -T "COMPOSER=%composer%" %haslyrics%--tag-from-file=LYRICS="%lyricsfile%"%haslyrics% -T "DISCNUMBER=%cdnumber%" -T "TOTALDISCS=%totalcds%" -T "TOTALTRACKS=%numtracks%" %hascover%--picture="%coverfile%"%hascover% %source% -o %dest%
TOC of the extracted CD
Track | Start | Length | Start sector | End sector
---------------------------------------------------------
1 | 0:00.00 | 2:20.03 | 0 | 10502
2 | 2:20.03 | 1:46.16 | 10503 | 18468
3 | 4:06.19 | 1:49.31 | 18469 | 26674
4 | 5:55.50 | 2:16.11 | 26675 | 36885
5 | 8:11.61 | 1:12.74 | 36886 | 42359
6 | 9:24.60 | 3:01.50 | 42360 | 55984
7 | 12:26.35 | 6:11.70 | 55985 | 83879
8 | 18:38.30 | 5:03.53 | 83880 | 106657
9 | 23:42.08 | 7:39.50 | 106658 | 141132
10 | 31:21.58 | 8:16.25 | 141133 | 178357
11 | 39:38.08 | 6:11.66 | 178358 | 206248
12 | 45:49.74 | 8:35.31 | 206249 | 244904
13 | 54:25.30 | 4:17.69 | 244905 | 264248
14 | 58:43.24 | 1:36.37 | 264249 | 271485
15 | 60:19.61 | 3:30.06 | 271486 | 287241
16 | 63:49.67 | 1:50.25 | 287242 | 295516
17 | 65:40.17 | 3:32.62 | 295517 | 311478
18 | 69:13.04 | 3:39.66 | 311479 | 327969
Track 1
Filename E:\Music\Dublin Guitar Quartet\Dublin Guitar Quartet - Performs Phillip Glass (flac)\01 - String Quartet No. 2 'Company' (1984) - I - Dublin Guitar Quartet.wav
Pre-gap length 0:00:02.00
Peak level 98.8 %
Extraction speed 2.4 X
Track quality 100.0 %
Test CRC B025468E
Copy CRC B025468E
Accurately ripped (confidence 1) [6A4F6B2B] (AR v2)
Copy OK
Track 2
Filename E:\Music\Dublin Guitar Quartet\Dublin Guitar Quartet - Performs Phillip Glass (flac)\02 - String Quartet No. 2 'Company' (1984) - II - Dublin Guitar Quartet.wav
Peak level 98.8 %
Extraction speed 1.7 X
Track quality 99.8 %
Test CRC 4B8FC640
Copy CRC 4B8FC640
Accurately ripped (confidence 1) [0E67828A] (AR v2)
Copy OK
Track 3
Filename E:\Music\Dublin Guitar Quartet\Dublin Guitar Quartet - Performs Phillip Glass (flac)\03 - String Quartet No. 2 'Company' (1984) - III - Dublin Guitar Quartet.wav
Peak level 98.8 %
Extraction speed 2.4 X
Track quality 100.0 %
Test CRC 8E5040D3
Copy CRC 8E5040D3
Accurately ripped (confidence 1) [4BDEE8F3] (AR v2)
Copy OK
Track 4
Filename E:\Music\Dublin Guitar Quartet\Dublin Guitar Quartet - Performs Phillip Glass (flac)\04 - String Quartet No. 2 'Company' (1984) - IV - Dublin Guitar Quartet.wav
Peak level 93.9 %
Extraction speed 2.6 X
Track quality 100.0 %
Test CRC 73D560A9
Copy CRC 73D560A9
Accurately ripped (confidence 1) [01D8FC33] (AR v2)
Copy OK
Track 5
Filename E:\Music\Dublin Guitar Quartet\Dublin Guitar Quartet - Performs Phillip Glass (flac)\05 - String Quartet No. 5 (1991) - I - Dublin Guitar Quartet.wav
Peak level 87.6 %
Extraction speed 2.3 X
Track quality 100.0 %
Test CRC 4AE2DF7C
Copy CRC 4AE2DF7C
Accurately ripped (confidence 1) [166B3D14] (AR v2)
Copy OK
Track 6
Filename E:\Music\Dublin Guitar Quartet\Dublin Guitar Quartet - Performs Phillip Glass (flac)\06 - String Quartet No. 5 (1991) - II - Dublin Guitar Quartet.wav
Peak level 98.8 %
Extraction speed 3.0 X
Track quality 100.0 %
Test CRC 9BDA831C
Copy CRC 9BDA831C
Accurately ripped (confidence 1) [26F76394] (AR v2)
Copy OK
Track 7
Filename E:\Music\Dublin Guitar Quartet\Dublin Guitar Quartet - Performs Phillip Glass (flac)\07 - String Quartet No. 5 (1991) - III - Dublin Guitar Quartet.wav
Peak level 98.8 %
Extraction speed 3.6 X
Track quality 100.0 %
Test CRC F15252D6
Copy CRC F15252D6
Accurately ripped (confidence 1) [2D3D8362] (AR v2)
Copy OK
Track 8
Filename E:\Music\Dublin Guitar Quartet\Dublin Guitar Quartet - Performs Phillip Glass (flac)\08 - String Quartet No. 5 (1991) - IV - Dublin Guitar Quartet.wav
Peak level 98.8 %
Extraction speed 3.8 X
Track quality 100.0 %
Test CRC DC0AE6F6
Copy CRC DC0AE6F6
Accurately ripped (confidence 1) [09C6937B] (AR v2)
Copy OK
Track 9
Filename E:\Music\Dublin Guitar Quartet\Dublin Guitar Quartet - Performs Phillip Glass (flac)\09 - String Quartet No. 5 (1991) - V - Dublin Guitar Quartet.wav
Peak level 98.8 %
Extraction speed 4.2 X
Track quality 100.0 %
Test CRC 771BE890
Copy CRC 771BE890
Accurately ripped (confidence 1) [62B71624] (AR v2)
Copy OK
Track 10
Filename E:\Music\Dublin Guitar Quartet\Dublin Guitar Quartet - Performs Phillip Glass (flac)\10 - String Quartet No. 4 'Puczak' (1989) - I - Dublin Guitar Quartet.wav
Peak level 98.8 %
Extraction speed 4.1 X
Track quality 99.9 %
Test CRC D421C5ED
Copy CRC D421C5ED
Accurately ripped (confidence 1) [039333B0] (AR v2)
Copy OK
Track 11
Filename E:\Music\Dublin Guitar Quartet\Dublin Guitar Quartet - Performs Phillip Glass (flac)\11 - String Quartet No. 4 'Puczak' (1989) - II - Dublin Guitar Quartet.wav
Peak level 84.1 %
Extraction speed 4.7 X
Track quality 100.0 %
Test CRC E73549F8
Copy CRC E73549F8
Accurately ripped (confidence 1) [3F7A28D7] (AR v2)
Copy OK
Track 12
Filename E:\Music\Dublin Guitar Quartet\Dublin Guitar Quartet - Performs Phillip Glass (flac)\12 - String Quartet No. 4 'Puczak' (1989) - III - Dublin Guitar Quartet.wav
Peak level 98.8 %
Extraction speed 5.1 X
Track quality 100.0 %
Test CRC A2EA1513
Copy CRC A2EA1513
Accurately ripped (confidence 1) [F920E8B7] (AR v2)
Copy OK
Track 13
Filename E:\Music\Dublin Guitar Quartet\Dublin Guitar Quartet - Performs Phillip Glass (flac)\13 - String Quartet No. 3 'Mishima' (1985) - I Award Montage - Dublin Guitar Quartet.wav
Peak level 98.8 %
Extraction speed 4.9 X
Track quality 100.0 %
Test CRC 43C7ABC0
Copy CRC 43C7ABC0
Accurately ripped (confidence 1) [31D93E93] (AR v2)
Copy OK
Track 14
Filename E:\Music\Dublin Guitar Quartet\Dublin Guitar Quartet - Performs Phillip Glass (flac)\14 - String Quartet No. 3 'Mishima' (1985) - II November 25 - Ichigaya - Dublin Guitar Quartet.wav
Peak level 83.9 %
Extraction speed 4.1 X
Track quality 100.0 %
Test CRC 9E0224FC
Copy CRC 9E0224FC
Accurately ripped (confidence 1) [99F0EDF4] (AR v2)
Copy OK
Track 15
Filename E:\Music\Dublin Guitar Quartet\Dublin Guitar Quartet - Performs Phillip Glass (flac)\15 - String Quartet No. 3 'Mishima' (1985) - III 1934 - Grandmother & Kimitake - Dublin Guitar Quartet.wav
Peak level 98.8 %
Extraction speed 4.9 X
Track quality 100.0 %
Test CRC 056264E8
Copy CRC 056264E8
Accurately ripped (confidence 1) [67D55F43] (AR v2)
Copy OK
Track 16
Filename E:\Music\Dublin Guitar Quartet\Dublin Guitar Quartet - Performs Phillip Glass (flac)\16 - String Quartet No. 3 'Mishima' (1985) - IV 1962 - Bodybuilding - Dublin Guitar Quartet.wav
Peak level 98.8 %
Extraction speed 4.4 X
Track quality 100.0 %
Test CRC 999B7776
Copy CRC 999B7776
Accurately ripped (confidence 1) [4FC06494] (AR v2)
Copy OK
Track 17
Filename E:\Music\Dublin Guitar Quartet\Dublin Guitar Quartet - Performs Phillip Glass (flac)\17 - String Quartet No. 3 'Mishima' (1985) - V Blood Oath - Dublin Guitar Quartet.wav
Peak level 98.8 %
Extraction speed 4.1 X
Track quality 99.9 %
Test CRC 2F7745A1
Copy CRC 2F7745A1
Accurately ripped (confidence 1) [F64C52B0] (AR v2)
Copy OK
Track 18
Filename E:\Music\Dublin Guitar Quartet\Dublin Guitar Quartet - Performs Phillip Glass (flac)\18 - String Quartet No. 3 'Mishima' (1985) - VI Mishima,Closing - Dublin Guitar Quartet.wav
Peak level 89.3 %
Extraction speed 5.2 X
Track quality 100.0 %
Test CRC EEC8EACD
Copy CRC EEC8EACD
Accurately ripped (confidence 1) [97AB834D] (AR v2)
Copy OK
All tracks accurately ripped
No errors occurred
End of status report
---- CUETools DB Plugin V2.1.3
[CTDB TOCID: ajn31lhV6goU_YUIyJhiKfJZjFQ-] found, Submit result: ajn31lhV6goU_YUIyJhiKfJZjFQ- has been confirmed
[2bc56a60] (2/2) Accurately ripped
==== Log checksum B30E8CBF992DD5105605E1EAF1138C1CE06831C129A55A77D78A5621BBA5E78F ====[pre]]

Содержание индексной карты (.CUE)

[pre]REM GENRE Classical
REM DATE 2014
REM DISCID F6111412
REM COMMENT "ExactAudioCopy v1.0b3"
PERFORMER "Dublin Guitar Quartet"
TITLE "Performs Philip Glass"
FILE "01 - String Quartet No. 2 'Company' (1984) - I - Dublin Guitar Quartet.wav" WAVE
TRACK 01 AUDIO
TITLE "String Quartet No. 2 'Company' (1984) - I"
PERFORMER "Dublin Guitar Quartet"
INDEX 01 00:00:00
FILE "02 - String Quartet No. 2 'Company' (1984) - II - Dublin Guitar Quartet.wav" WAVE
TRACK 02 AUDIO
TITLE "String Quartet No. 2 'Company' (1984) - II"
PERFORMER "Dublin Guitar Quartet"
INDEX 01 00:00:00
FILE "03 - String Quartet No. 2 'Company' (1984) - III - Dublin Guitar Quartet.wav" WAVE
TRACK 03 AUDIO
TITLE "String Quartet No. 2 'Company' (1984) - III"
PERFORMER "Dublin Guitar Quartet"
INDEX 01 00:00:00
FILE "04 - String Quartet No. 2 'Company' (1984) - IV - Dublin Guitar Quartet.wav" WAVE
TRACK 04 AUDIO
TITLE "String Quartet No. 2 'Company' (1984) - IV"
PERFORMER "Dublin Guitar Quartet"
INDEX 01 00:00:00
FILE "05 - String Quartet No. 5 (1991) - I - Dublin Guitar Quartet.wav" WAVE
TRACK 05 AUDIO
TITLE "String Quartet No. 5 (1991) - I"
PERFORMER "Dublin Guitar Quartet"
INDEX 01 00:00:00
FILE "06 - String Quartet No. 5 (1991) - II - Dublin Guitar Quartet.wav" WAVE
TRACK 06 AUDIO
TITLE "String Quartet No. 5 (1991) - II"
PERFORMER "Dublin Guitar Quartet"
INDEX 01 00:00:00
FILE "07 - String Quartet No. 5 (1991) - III - Dublin Guitar Quartet.wav" WAVE
TRACK 07 AUDIO
TITLE "String Quartet No. 5 (1991) - III"
PERFORMER "Dublin Guitar Quartet"
INDEX 01 00:00:00
FILE "08 - String Quartet No. 5 (1991) - IV - Dublin Guitar Quartet.wav" WAVE
TRACK 08 AUDIO
TITLE "String Quartet No. 5 (1991) - IV"
PERFORMER "Dublin Guitar Quartet"
INDEX 01 00:00:00
FILE "09 - String Quartet No. 5 (1991) - V - Dublin Guitar Quartet.wav" WAVE
TRACK 09 AUDIO
TITLE "String Quartet No. 5 (1991) - V"
PERFORMER "Dublin Guitar Quartet"
INDEX 01 00:00:00
FILE "10 - String Quartet No. 4 'Puczak' (1989) - I - Dublin Guitar Quartet.wav" WAVE
TRACK 10 AUDIO
TITLE "String Quartet No. 4 'Puczak' (1989) - I"
PERFORMER "Dublin Guitar Quartet"
INDEX 01 00:00:00
FILE "11 - String Quartet No. 4 'Puczak' (1989) - II - Dublin Guitar Quartet.wav" WAVE
TRACK 11 AUDIO
TITLE "String Quartet No. 4 'Puczak' (1989) - II"
PERFORMER "Dublin Guitar Quartet"
INDEX 01 00:00:00
FILE "12 - String Quartet No. 4 'Puczak' (1989) - III - Dublin Guitar Quartet.wav" WAVE
TRACK 12 AUDIO
TITLE "String Quartet No. 4 'Puczak' (1989) - III"
PERFORMER "Dublin Guitar Quartet"
INDEX 01 00:00:00
FILE "13 - String Quartet No. 3 'Mishima' (1985) - I Award Montage - Dublin Guitar Quartet.wav" WAVE
TRACK 13 AUDIO
TITLE "String Quartet No. 3 'Mishima' (1985) - I Award Montage"
PERFORMER "Dublin Guitar Quartet"
INDEX 01 00:00:00
FILE "14 - String Quartet No. 3 'Mishima' (1985) - II November 25 - Ichigaya - Dublin Guitar Quartet.wav" WAVE
TRACK 14 AUDIO
TITLE "String Quartet No. 3 'Mishima' (1985) - II November 25 - Ichigaya"
PERFORMER "Dublin Guitar Quartet"
INDEX 01 00:00:00
FILE "15 - String Quartet No. 3 'Mishima' (1985) - III 1934 - Grandmother & Kimitake - Dublin Guitar Quartet.wav" WAVE
TRACK 15 AUDIO
TITLE "String Quartet No. 3 'Mishima' (1985) - III 1934 - Grandmother & Kimitake"
PERFORMER "Dublin Guitar Quartet"
INDEX 01 00:00:00
FILE "16 - String Quartet No. 3 'Mishima' (1985) - IV 1962 - Bodybuilding - Dublin Guitar Quartet.wav" WAVE
TRACK 16 AUDIO
TITLE "String Quartet No. 3 'Mishima' (1985) - IV 1962 - Bodybuilding"
PERFORMER "Dublin Guitar Quartet"
INDEX 01 00:00:00
FILE "17 - String Quartet No. 3 'Mishima' (1985) - V Blood Oath - Dublin Guitar Quartet.wav" WAVE
TRACK 17 AUDIO
TITLE "String Quartet No. 3 'Mishima' (1985) - V Blood Oath"
PERFORMER "Dublin Guitar Quartet"
INDEX 01 00:00:00
FILE "18 - String Quartet No. 3 'Mishima' (1985) - VI Mishima,Closing - Dublin Guitar Quartet.wav" WAVE
TRACK 18 AUDIO
TITLE "String Quartet No. 3 'Mishima' (1985) - VI Mishima/Closing"
PERFORMER "Dublin Guitar Quartet"
INDEX 01 00:00:00



Показать сообщения:    

Текущее время: 09-Дек 01:09

Часовой пояс: UTC + 3


Вы не можете начинать темы
Вы не можете отвечать на сообщения
Вы не можете редактировать свои сообщения
Вы не можете удалять свои сообщения
Вы не можете голосовать в опросах
Вы не можете прикреплять файлы к сообщениям
Вы не можете скачивать файлы