(Classical, sacred) Cipriano de Rore - Missa Doulce memoire; Missa a note negre - The Brabant Ensemble, Stephen Rice - 2013, FLAC (image+.cue) lossless


Статистика раздачи [Обновить пиров]
Размер:  303 MB   |    Зарегистрирован:  8 месяцев 17 дней   |    Скачан:  0 раз

Полного источника не было: Никогда

Личеров:  15  [  0 KB/s  ]   Подробная статистика пиров
 
   
 
 
 

[Цитировать]

Cipriano de Rore - Missa Doulce mémoire; Missa a note negre - The Brabant Ensemble, Stephen Rice
Жанр: Classical, sacred
Страна-производитель диска: UK
Год издания диска: 2013
Издатель (лейбл): Hyperion
Номер по каталогу: CDA67913
Дата записи: 2012
Аудиокодек: FLAC
Тип рипа: image+.cue
Битрейт аудио: lossless
Продолжительность: 74:36
Источник: собственный рип
Наличие сканов в содержимом раздачи: да
Треклист:
Cipriano de Rore (c.1515/16-1565)
[1]-[5] Missa Doulce mémoire
[6] O altitudo divitiarum
[7] Fratres: Scitote
[8] Illuxit nunc sacra dies
[9]-[13] Missa a note negre
Исполнители:
The Brabant Ensemble
Stephen Rice
conductor

Лог создания рипа

Exact Audio Copy V1.0 beta 3 from 29. August 2011
EAC extraction logfile from 7. November 2014, 1:37
The Brabant Ensemble, Stephen Rice / Rore - Missa Doulce memoire & Missa a note negre
Used drive : HL-DT-STDVDRAM GU70N Adapter: 0 ID: 0
Read mode : Secure
Utilize accurate stream : Yes
Defeat audio cache : Yes
Make use of C2 pointers : No
Read offset correction : 48
Overread into Lead-In and Lead-Out : No
Fill up missing offset samples with silence : Yes
Delete leading and trailing silent blocks : No
Null samples used in CRC calculations : Yes
Used interface : Native Win32 interface for Win NT & 2000
Used output format : User Defined Encoder
Selected bitrate : 128 kBit/s
Quality : High
Add ID3 tag : No
Command line compressor : C:\Program Files (x86)\Exact Audio Copy\Flac\flac.exe
Additional command line options : -V -8 -T "Date=%year%" -T "Genre=%genre%" %source%
TOC of the extracted CD
Track | Start | Length | Start sector | End sector
---------------------------------------------------------
1 | 0:00.00 | 3:32.35 | 0 | 15934
2 | 3:32.35 | 4:47.62 | 15935 | 37521
3 | 8:20.22 | 8:22.50 | 37522 | 75221
4 | 16:42.72 | 5:18.62 | 75222 | 99133
5 | 22:01.59 | 5:43.17 | 99134 | 124875
6 | 27:45.01 | 7:09.71 | 124876 | 157121
7 | 34:54.72 | 5:58.03 | 157122 | 183974
8 | 40:53.00 | 2:25.72 | 183975 | 194921
9 | 43:18.72 | 4:10.29 | 194922 | 213700
10 | 47:29.26 | 5:36.59 | 213701 | 238959
11 | 53:06.10 | 8:54.60 | 238960 | 279069
12 | 62:00.70 | 5:47.10 | 279070 | 305104
13 | 67:48.05 | 6:47.72 | 305105 | 335701
Range status and errors
Selected range
Filename C:\temp\CDA67913 - Cipriano de Rore - Missa Doulce memoire; Missa a note negre\Rore - Missa Doulce memoire & Missa a note negre.wav
Peak level 98.8 %
Extraction speed 2.2 X
Range quality 99.9 %
Test CRC BB57F4D5
Copy CRC BB57F4D5
Copy OK
No errors occurred
AccurateRip summary
Track 1 accurately ripped (confidence 2) [BBF01F97] (AR v2)
Track 2 accurately ripped (confidence 2) [C7D91F48] (AR v2)
Track 3 accurately ripped (confidence 2) [A4892BB0] (AR v2)
Track 4 accurately ripped (confidence 2) [2771819A] (AR v2)
Track 5 accurately ripped (confidence 2) [B35FA105] (AR v2)
Track 6 accurately ripped (confidence 2) [36A3142E] (AR v2)
Track 7 accurately ripped (confidence 2) [145D887E] (AR v2)
Track 8 accurately ripped (confidence 2) [5590E252] (AR v2)
Track 9 accurately ripped (confidence 2) [607AF04B] (AR v2)
Track 10 accurately ripped (confidence 2) [5359E3C5] (AR v2)
Track 11 accurately ripped (confidence 2) [0903D70E] (AR v2)
Track 12 accurately ripped (confidence 2) [061A69F6] (AR v2)
Track 13 accurately ripped (confidence 2) [DE6E917C] (AR v2)
All tracks accurately ripped
End of status report
==== Log checksum 0919E5B170BBF0B9BA08BDB14C41C87A9E39902EF15282B682E29A8EBFD12143 ====
[teatrix.ru].t19434.torrent 
Торрент: Зарегистрирован [ 2016-03-18 12:46 ] · 4C59EE1957E7E89967DE1F801FB7EB34B07D83B1

Скачать .torrent

Скачать

25 KB

Статус: проверено
Скачан: 0 раз
Размер: 303 MB
terms.php



Быстрый ответ

Имя:

      
Для отправки сообщений необходимо включить JavaScript
Показать сообщения:    

Текущее время: 04-Дек 13:11

Часовой пояс: UTC + 3


Вы можете начинать темы
Вы можете отвечать на сообщения
Вы не можете редактировать свои сообщения
Вы не можете удалять свои сообщения
Вы не можете голосовать в опросах
Вы не можете прикреплять файлы к сообщениям
Вы можете скачивать файлы