(Opera) Spohr - Faust (Vier, von Jordis, Bric, Taha, Jennings - Bielefelder Philharmoniker, Moull) - 1993, APE (image+.cue) lossless


 

[Цитировать]

Louis Spohr (1784-1859) - Faust
Жанр: Opera
Страна-производитель диска: Germany
Год издания диска: 1993
Издатель (лейбл): CPO
Номер по каталогу: 999 247 2
Дата записи: 1993
Аудиокодек: APE
Тип рипа: image+.cue
Битрейт аудио: lossless
Продолжительность: 67'59 + 73'13
Источник: собственный рип
Наличие сканов в содержимом раздачи: да
Треклист:

CD1

Act I
1. Ouvertüre
2. 1. Akt: In Sinnenlust so sinnlos leben
3. Ha! Du wahntest, armer Tor
4. Wohlan, hinweg aus diesem Sinnentaumel!
5. Der Hölle selbst will ich Segen entringen
6. Liebe ist die zarte Blüte
7. Der Wein erfreut des Menschen Herz
8. Der Wein soll leben
9. O weine nicht, du holdes Mädchen
10. Folg dem Freunde mit Vertrauen
11. Schnell rettet Euch!
12. Die Hölle trennt auf ewig uns!
13. Die stille Nacht entweicht
14. Ja ich fühl es, treue Liebe
15. So heiter, schöne Grafin?
16. Hier meine Freunde
17. Ja, hoffe Kunigunde
18. Ich kann nicht ruhn
19. Hier ist das Schloss, wir sind am Ziel
20. Nun wohlan! lch halte Wort

CD2

1. 2. Akt: Blocksbergszene
2. Brenne, Laterne, nahe und ferne
3. Sende, Himmel, Segensfülle
4. Dürft' ich mich nennen sein eigen
5. Komm Röschen, lass uns fliehen!
6. Was fuhl ich!' 'O ich Tor! lch kann hier fragen?
7. lch bin allein
8. Wie dich nennen, seltsam neues Sehnen
9. Lang mögen die Teueren leben
10. lch freue mich des Anteils
11. Nein, nein, nein
12. Wie bin ich dieser Menschenmaske satt
13. Still noch einmal dein Verlangen
14. In nächtlicher Stille
15. lch bin erschopft, ich kann nicht weiter
16. Welch ein Wahn hat mich verblendet
17. Sprecht! Wo find ich den Geliebten?
18. Er naht, bald ist erreicht mein Ziel!
19. Verlassen, allein, weh mir!
Исполнители:
Louis Spohr (1784-1859) - Faust
Grosse romantische Oper in three acts
Libretto, Josef Carl Bernard
Faust (Baritone) - Michael Vier
Mephistopheles (Bass) - Eeko von Jordis
Sir Gulf (Bass) - Ian Bric
Röschen (Soprano) - Claudia Taha
Kunigunde (Soprano) - Diana Jennings
Count Hugo (Tenor) - William Pugh
Wagner (Tenor) - Ulrich Neuweiler
Wohlhaldt (Tenor) - Drummond Walker
Franz (Tenor) - Drew Abbott
Chor und Extrachor der Oper Bielefeld
Bielefelder Philharmoniker
Geoffrey Moull
Лог создания рипа

CD1

Exact Audio Copy V1.0 beta 3 from 29. August 2011
EAC extraction logfile from 10. August 2014, 17:41
Spohr / Faust, Moull CD1
Used drive : TS8XDVDSTRANSCEND Adapter: 1 ID: 0
Read mode : Secure
Utilize accurate stream : Yes
Defeat audio cache : Yes
Make use of C2 pointers : No
Read offset correction : 6
Overread into Lead-In and Lead-Out : No
Fill up missing offset samples with silence : Yes
Delete leading and trailing silent blocks : No
Null samples used in CRC calculations : Yes
Used interface : Native Win32 interface for Win NT & 2000
Used output format : Monkey's Audio Lossless Encoder
Selected bitrate : High Lossless Compression
Quality : High
Add ID3 tag : No
Command line compressor : C:\Program Files (x86)\Exact Audio Copy\MAC\MAC.exe
TOC of the extracted CD
Track | Start | Length | Start sector | End sector
---------------------------------------------------------
1 | 0:00.50 | 6:11.27 | 50 | 27901
2 | 6:12.02 | 3:19.35 | 27902 | 42861
3 | 9:31.37 | 3:20.70 | 42862 | 57931
4 | 12:52.32 | 2:19.03 | 57932 | 68359
5 | 15:11.35 | 0:50.55 | 68360 | 72164
6 | 16:02.15 | 4:44.60 | 72165 | 93524
7 | 20:47.00 | 1:30.37 | 93525 | 100311
8 | 22:17.37 | 3:16.48 | 100312 | 115059
9 | 25:34.10 | 1:30.70 | 115060 | 121879
10 | 27:05.05 | 3:54.07 | 121880 | 139436
11 | 30:59.12 | 3:46.45 | 139437 | 156431
12 | 34:45.57 | 4:15.15 | 156432 | 175571
13 | 39:00.72 | 3:09.05 | 175572 | 189751
14 | 42:10.02 | 6:06.03 | 189752 | 217204
15 | 48:16.05 | 2:00.42 | 217205 | 226246
16 | 50:16.47 | 1:18.15 | 226247 | 232111
17 | 51:34.62 | 4:19.28 | 232112 | 251564
18 | 55:54.15 | 3:44.72 | 251565 | 268436
19 | 59:39.12 | 3:16.03 | 268437 | 283139
20 | 62:55.15 | 5:04.52 | 283140 | 305991
Range status and errors
Selected range
Filename D:\EAC\Spohr - Faust, Moull CD1.wav
Peak level 99.6 %
Extraction speed 3.4 X
Range quality 100.0 %
Test CRC 5A676E5D
Copy CRC 5A676E5D
Copy OK
No errors occurred
AccurateRip summary
Track 1 accurately ripped (confidence 2) [4C077816] (AR v1)
Track 2 accurately ripped (confidence 2) [B0BDE0DC] (AR v1)
Track 3 accurately ripped (confidence 2) [5CBCCE7F] (AR v1)
Track 4 accurately ripped (confidence 2) [2AF87D7C] (AR v1)
Track 5 accurately ripped (confidence 2) [F36D36FD] (AR v1)
Track 6 accurately ripped (confidence 2) [DCB9BD96] (AR v1)
Track 7 accurately ripped (confidence 2) [E2D98B64] (AR v1)
Track 8 accurately ripped (confidence 2) [757B8616] (AR v1)
Track 9 accurately ripped (confidence 2) [E50BEF5B] (AR v1)
Track 10 accurately ripped (confidence 2) [35C70005] (AR v1)
Track 11 accurately ripped (confidence 2) [CA0F3C18] (AR v1)
Track 12 accurately ripped (confidence 2) [A8BDF6E3] (AR v1)
Track 13 accurately ripped (confidence 2) [47BDE6C2] (AR v1)
Track 14 accurately ripped (confidence 2) [D2673701] (AR v1)
Track 15 accurately ripped (confidence 2) [17EDDCF0] (AR v1)
Track 16 accurately ripped (confidence 2) [BDB2E97C] (AR v1)
Track 17 accurately ripped (confidence 2) [DF2FFE75] (AR v1)
Track 18 accurately ripped (confidence 2) [BC2B55AF] (AR v1)
Track 19 accurately ripped (confidence 2) [9DAB509C] (AR v1)
Track 20 accurately ripped (confidence 2) [206C32B2] (AR v1)
All tracks accurately ripped
End of status report
---- CUETools DB Plugin V2.1.3
[CTDB TOCID: 5jpXohmxt.xpaVpy3l7rsLEmiGI-] disk not present in database, Submit result: discs with pregaps not supported in this protocol version
==== Log checksum DEB05C9EEE43E5CA7E174E3B79CA340F6B1E2003B44125833E0E97241AE7C49E ====

CD2

Exact Audio Copy V1.0 beta 3 from 29. August 2011
EAC extraction logfile from 10. August 2014, 17:40
Spohr / Faust, Moull CD2
Used drive : TSSTcorpCDDVDW SE-208AB Adapter: 1 ID: 1
Read mode : Secure
Utilize accurate stream : Yes
Defeat audio cache : Yes
Make use of C2 pointers : No
Read offset correction : 6
Overread into Lead-In and Lead-Out : No
Fill up missing offset samples with silence : Yes
Delete leading and trailing silent blocks : No
Null samples used in CRC calculations : Yes
Used interface : Native Win32 interface for Win NT & 2000
Used output format : Monkey's Audio Lossless Encoder
Selected bitrate : High Lossless Compression
Quality : High
Add ID3 tag : No
Command line compressor : C:\Program Files (x86)\Exact Audio Copy\MAC\MAC.exe
TOC of the extracted CD
Track | Start | Length | Start sector | End sector
---------------------------------------------------------
1 | 0:00.50 | 2:10.72 | 50 | 9871
2 | 2:11.47 | 6:57.68 | 9872 | 41214
3 | 9:09.40 | 2:29.40 | 41215 | 52429
4 | 11:39.05 | 2:45.22 | 52430 | 64826
5 | 14:24.27 | 2:36.23 | 64827 | 76549
6 | 17:00.50 | 6:11.10 | 76550 | 104384
7 | 23:11.60 | 3:01.52 | 104385 | 118011
8 | 26:13.37 | 6:01.50 | 118012 | 145136
9 | 32:15.12 | 3:05.50 | 145137 | 159061
10 | 35:20.62 | 5:03.70 | 159062 | 181856
11 | 40:24.57 | 2:32.13 | 181857 | 193269
12 | 42:56.70 | 5:13.30 | 193270 | 216774
13 | 48:10.25 | 3:01.47 | 216775 | 230396
14 | 51:11.72 | 1:50.63 | 230397 | 238709
15 | 53:02.60 | 4:20.37 | 238710 | 258246
16 | 57:23.22 | 4:06.15 | 258247 | 276711
17 | 61:29.37 | 2:47.23 | 276712 | 289259
18 | 64:16.60 | 6:18.07 | 289260 | 317616
19 | 70:34.67 | 2:39.08 | 317617 | 329549
Range status and errors
Selected range
Filename D:\EAC\Spohr - Faust, Moull CD2.wav
Peak level 96.6 %
Extraction speed 3.1 X
Range quality 99.8 %
Test CRC 445AAEE9
Copy CRC 445AAEE9
Copy OK
No errors occurred
AccurateRip summary
Track 1 accurately ripped (confidence 3) [A27C3E5B] (AR v1)
Track 2 accurately ripped (confidence 3) [AA0A0F91] (AR v1)
Track 3 accurately ripped (confidence 3) [D6F7DB82] (AR v1)
Track 4 accurately ripped (confidence 3) [112999CD] (AR v1)
Track 5 accurately ripped (confidence 3) [6D0ED625] (AR v1)
Track 6 accurately ripped (confidence 3) [16C8FD6F] (AR v1)
Track 7 accurately ripped (confidence 3) [D4518C67] (AR v1)
Track 8 accurately ripped (confidence 3) [02B884F7] (AR v1)
Track 9 accurately ripped (confidence 3) [0589B1BF] (AR v1)
Track 10 accurately ripped (confidence 3) [4AAFA40F] (AR v1)
Track 11 accurately ripped (confidence 3) [99E2EC94] (AR v1)
Track 12 accurately ripped (confidence 3) [B007B8CC] (AR v1)
Track 13 accurately ripped (confidence 3) [A3F224C1] (AR v1)
Track 14 accurately ripped (confidence 3) [827F7539] (AR v1)
Track 15 accurately ripped (confidence 3) [624EEBB7] (AR v1)
Track 16 accurately ripped (confidence 3) [D7550EF5] (AR v1)
Track 17 accurately ripped (confidence 3) [556D4F92] (AR v1)
Track 18 accurately ripped (confidence 3) [6AFEEDA2] (AR v1)
Track 19 accurately ripped (confidence 3) [F20D03F9] (AR v1)
All tracks accurately ripped
End of status report
---- CUETools DB Plugin V2.1.3
[CTDB TOCID: BwF7o5ugknKPbVRvCt_pKI0ljeg-] disk not present in database, Submit result: discs with pregaps not supported in this protocol version
==== Log checksum FF783824D3AABFE6DB7F89FB79493BCC516C43A46D81AE1EC7787F34090342A1 ====

Содержание индексной карты (.CUE)

CD1

REM GENRE Opera
REM DATE 1993
REM DISCID 3C0FEF14
REM COMMENT "ExactAudioCopy v1.0b3"
PERFORMER "Spohr"
TITLE "Faust, Moull CD1"
FILE "Spohr - Faust, Moull CD1.ape" WAVE
TRACK 01 AUDIO
TITLE "Ouvertüre"
PERFORMER "Spohr"
ISRC DEB209324701
INDEX 00 00:00:00
INDEX 01 00:00:50
TRACK 02 AUDIO
TITLE "1. Akt: In Sinnenlust so sinnlos leben (Faust, Mephistopheles)"
PERFORMER "Spohr"
ISRC DEB209324702
INDEX 01 06:12:02
TRACK 03 AUDIO
TITLE "Ha! Du wahntest, armer Tor (Faust, Mephistopheles)"
PERFORMER "Spohr"
ISRC DEB209324703
INDEX 01 09:31:37
TRACK 04 AUDIO
TITLE "Wohlan, hinweg aus diesem Sinnentaumel! (Faust, Mephistopheles)"
PERFORMER "Spohr"
ISRC DEB209324704
INDEX 01 12:52:32
TRACK 05 AUDIO
TITLE "Der Hölle selbst will ich Segen entringen (Faust)"
PERFORMER "Spohr"
ISRC DEB209324705
INDEX 01 15:11:35
TRACK 06 AUDIO
TITLE "Liebe ist die zarte Blüte (Faust)"
PERFORMER "Spohr"
ISRC DEB209324706
INDEX 01 16:02:15
TRACK 07 AUDIO
TITLE "Der Wein erfreut des Menschen Herz (Fausts Freunde)"
PERFORMER "Spohr"
ISRC DEB209324707
INDEX 01 20:47:00
TRACK 08 AUDIO
TITLE "Der Wein soll leben (Faust Freunde)"
PERFORMER "Spohr"
ISRC DEB209324708
INDEX 01 22:17:37
TRACK 09 AUDIO
TITLE "O weine nicht, du holdes Mädchen (Faust, Röschen)"
PERFORMER "Spohr"
ISRC DEB209324709
INDEX 01 25:34:10
TRACK 10 AUDIO
TITLE "Folg dem Freunde mit Vertrauen (Faust, Röschen)"
PERFORMER "Spohr"
ISRC DEB209324710
INDEX 01 27:05:05
TRACK 11 AUDIO
TITLE "Schnell rettet Euch! (Faust, Mephisto, Röschen, Fausts Freunde)"
PERFORMER "Spohr"
ISRC DEB209324711
INDEX 01 30:59:12
TRACK 12 AUDIO
TITLE "Die Hölle trennt auf ewig uns! (Faust, Mephisto, Röschen, Fausts Freunde)"
PERFORMER "Spohr"
ISRC DEB209324712
INDEX 01 34:45:57
TRACK 13 AUDIO
TITLE "Die stille Nacht entweicht (Kunigunde)"
PERFORMER "Spohr"
ISRC DEB209324713
INDEX 00 38:55:07
INDEX 01 39:00:72
TRACK 14 AUDIO
TITLE "Ja ich fühl es, treue Liebe (Kunigunde)"
PERFORMER "Spohr"
ISRC DEB209324713
INDEX 01 42:10:02
TRACK 15 AUDIO
TITLE "So heiter, schöne Grafin? (Gulf, Kunigunde)"
PERFORMER "Spohr"
ISRC DEB209324715
INDEX 01 48:16:05
TRACK 16 AUDIO
TITLE "Hier meine Freunde (Gulf mit Chor)"
PERFORMER "Spohr"
ISRC DEB209324715
INDEX 01 50:16:47
TRACK 17 AUDIO
TITLE "Ja, hoffe Kunigunde (Gulf mit Chor)"
PERFORMER "Spohr"
ISRC DEB209324717
INDEX 01 51:34:62
TRACK 18 AUDIO
TITLE "Ich kann nicht ruhn (Röschen, Franz, Mephistopheles)"
PERFORMER "Spohr"
ISRC DEB209324718
INDEX 00 55:53:50
INDEX 01 55:54:15
TRACK 19 AUDIO
TITLE "Hier ist das Schloss, wir sind am Ziel (Tutti)"
PERFORMER "Spohr"
ISRC DEB209324719
INDEX 01 59:39:12
TRACK 20 AUDIO
TITLE "Rezitativ und Finale: Nun wohlan! lch halte Wort (Tutti)"
PERFORMER "Spohr"
ISRC DEB209324720
INDEX 01 62:55:15

CD2

REM GENRE Opera
REM DATE 1993
REM DISCID 13112A13
REM COMMENT "ExactAudioCopy v1.0b3"
PERFORMER "Spohr"
TITLE "Faust, Moull CD2"
FILE "Spohr - Faust, Moull CD2.ape" WAVE
TRACK 01 AUDIO
TITLE "2. Akt: Blocksbergszene"
PERFORMER "Spohr"
ISRC DEB209324721
INDEX 00 00:00:00
INDEX 01 00:00:50
TRACK 02 AUDIO
TITLE "'Brenne, Laterne, nahe und ferne'"
PERFORMER "Spohr"
ISRC DEB209324722
INDEX 01 02:11:47
TRACK 03 AUDIO
TITLE "Chor, Rezitativ und Kavatine: 'Sende, Himmel, Segensfülle'"
PERFORMER "Spohr"
ISRC DEB209324723
INDEX 01 09:09:40
TRACK 04 AUDIO
TITLE "Chor, Rezitativ und Kavatine: 'Dürft' ich mich nennen sein eigen'"
PERFORMER "Spohr"
ISRC DEB209324723
INDEX 01 11:39:05
TRACK 05 AUDIO
TITLE "Rezitativ: 'Komm Röschen, lass uns fliehen!'"
PERFORMER "Spohr"
ISRC DEB209324725
INDEX 01 14:24:27
TRACK 06 AUDIO
TITLE "Rezitativ und Arie: 'Was fuhl ich!' 'O ich Tor! lch kann hier fragen?'"
PERFORMER "Spohr"
ISRC DEB209324726
INDEX 01 17:00:50
TRACK 07 AUDIO
TITLE "Rezitativ und Arie: 'lch bin allein'"
PERFORMER "Spohr"
ISRC DEB209324727
INDEX 00 23:09:27
INDEX 01 23:11:60
TRACK 08 AUDIO
TITLE "Rezitativ und Arie: 'Wie dich nennen, seltsam neues Sehnen'"
PERFORMER "Spohr"
ISRC DEB209324728
INDEX 01 26:13:37
TRACK 09 AUDIO
TITLE "Finale: 'Lang mögen die Teueren leben'"
PERFORMER "Spohr"
ISRC DEB209324729
INDEX 01 32:15:12
TRACK 10 AUDIO
TITLE "Finale: 'lch freue mich des Anteils'"
PERFORMER "Spohr"
ISRC DEB209324730
INDEX 01 35:20:62
TRACK 11 AUDIO
TITLE "Finale: 'Nein, nein, nein'"
PERFORMER "Spohr"
ISRC DEB209324731
INDEX 01 40:24:57
TRACK 12 AUDIO
TITLE "Introduktion, Rezitativ und Arie: 'Wie bin ich dieser Menschenmaske satt'"
PERFORMER "Spohr"
ISRC DEB209324732
INDEX 00 42:48:67
INDEX 01 42:56:70
TRACK 13 AUDIO
TITLE "Introduktion, Rezitativ und Arie: 'Still noch einmal dein Verlangen'"
PERFORMER "Spohr"
ISRC DEB209324733
INDEX 01 48:10:25
TRACK 14 AUDIO
TITLE "Introduktion, Rezitativ und Arie: 'In nächtlicher Stille'"
PERFORMER "Spohr"
ISRC DEB209324734
INDEX 01 51:11:72
TRACK 15 AUDIO
TITLE "Rezitativ: 'lch bin erschopft, ich kann nicht weiter'"
PERFORMER "Spohr"
ISRC DEB209324735
INDEX 01 53:02:60
TRACK 16 AUDIO
TITLE "Finale: Welch ein Wahn hat mich verblendet'"
PERFORMER "Spohr"
ISRC DEB209324736
INDEX 01 57:23:22
TRACK 17 AUDIO
TITLE "Finale: 'Sprecht! Wo find ich den Geliebten?'"
PERFORMER "Spohr"
ISRC DEB209324737
INDEX 01 61:29:37
TRACK 18 AUDIO
TITLE "Finale: 'Er naht, bald ist erreicht mein Ziel!'"
PERFORMER "Spohr"
ISRC DEB209324738
INDEX 01 64:16:60
TRACK 19 AUDIO
TITLE "Finale: 'Verlassen, allein, weh mir!'"
PERFORMER "Spohr"
ISRC DEB209324739
INDEX 01 70:34:67



Показать сообщения:    

Текущее время: 03-Дек 22:40

Часовой пояс: UTC + 3


Вы не можете начинать темы
Вы не можете отвечать на сообщения
Вы не можете редактировать свои сообщения
Вы не можете удалять свои сообщения
Вы не можете голосовать в опросах
Вы не можете прикреплять файлы к сообщениям
Вы не можете скачивать файлы