Дворянские фамилии России (Андрей Семак) [2010, исторический, TVRip]


Статистика раздачи [Обновить пиров]
Размер:  1.36 GB   |    Зарегистрирован:  8 месяцев 22 дня   |    Скачан:  0 раз

Полного источника не было: Никогда

 
   
 
 
 

[Цитировать]

Дворянские фамилии России
Дата/Год выпуска: 2010
Страна: Россия
Жанр: исторический
Продолжительность: 5 x ~ 00:26:00
Перевод: Не требуется
Русские субтитры: нет
Оригинальная аудиодорожка: русский
Режиссер: Андрей Семак
Описание: Документальный фильм "Дворянские фамилии России" - рассказ о самых знаменитых дворянских родах России - Гагарины, Голицины, Апраксины, Юсуповы, Строгановы. Дворяне изначально были в услужении у бояр и князей и заменили собой дружинников. Впервые в истории дворяне упоминаются в 1174 году и это связано с убийством князя Андрея Боголюбского. Уже начиная с XIV века дворяне начинают получать во владение поместья за свою службу. Но в отличие от боярского слоя, они не могли передавать землю по наследству. Во времена создания и становления единого государства дворяне становились надежной опорой для великих князей. Начиная с XV века их влияние в политической и экономической жизни страны все больше усиливалось. Постепенно дворяне слились с боярами. Понятие «Дворяне» стало обозначать высший класс населения России. Окончательные различия между дворянством и боярством исчезли в начале XVIII века, когда поместья и вотчины были приравнены друг к другу.
качество: TVRip
формат: AVI
Видео: MPEG4, XviD, 640x392 (1.633), 25.000 fps, 1 299 Kbps (0.207 bit/pixel)
Аудио: MP3, 48.0 KHz, 2 ch, 192 Kbps, CBR

Список выпусков/серий

01. Дворянские фамилии России. Гагарины
02. Дворянские фамилии России. Галицины
03. Дворянские фамилии России. Апраксины
04. Дворянские фамилии России. Юсуповы
05. Дворянские фамилии России. Строгановы

MediaInfo

General
Complete name : G:\документалка\Дворянские фамилии России\01. Дворянские фамилии России. Гагарины.avi
Format : AVI
Format/Info : Audio Video Interleave
File size : 279 MiB
Duration : 26mn 1s
Overall bit rate : 1 501 Kbps
Writing application : VirtualDubMod 1.5.10.3 | www.virtualdub-fr.org || (build 2550/release)
Writing library : VirtualDubMod build 2550/release
Video
ID : 0
Format : MPEG-4 Visual
Format profile : Advanced Simple@L5
Format settings, BVOP : 2
Format settings, QPel : No
Format settings, GMC : No warppoints
Format settings, Matrix : Default (H.263)
Codec ID : XVID
Codec ID/Hint : XviD
Duration : 26mn 1s
Bit rate : 1 299 Kbps
Width : 640 pixels
Height : 392 pixels
Display aspect ratio : 16:10
Frame rate : 25.000 fps
Color space : YUV
Chroma subsampling : 4:2:0
Bit depth : 8 bits
Scan type : Progressive
Compression mode : Lossy
Bits/(Pixel*Frame) : 0.207
Stream size : 242 MiB (87%)
Writing library : XviD 1.2.1 (UTC 2008-12-04)
Audio
ID : 1
Format : MPEG Audio
Format version : Version 1
Format profile : Layer 3
Codec ID : 55
Codec ID/Hint : MP3
Duration : 26mn 1s
Bit rate mode : Constant
Bit rate : 192 Kbps
Channel(s) : 2 channels
Sampling rate : 48.0 KHz
Compression mode : Lossy
Stream size : 35.7 MiB (13%)
Alignment : Aligned on interleaves
Interleave, duration : 40 ms (1.00 video frame)
Interleave, preload duration : 504 ms
Writing library : LAME3.98r
Encoding settings : -m s -V 4 -q 2 -lowpass 18.6 -b 192

Скриншоты

[teatrix.ru].t19436.torrent 
Торрент: Зарегистрирован [ 2016-03-18 12:38 ] · 779F97AE8D2413A8F89F7A13AC639ED8FD000EEA

Скачать .torrent

Скачать

15 KB

Статус: проверено
Скачан: 0 раз
Размер: 1.36 GB
terms.php



Быстрый ответ

Имя:

      
Для отправки сообщений необходимо включить JavaScript
Показать сообщения:    

Текущее время: 09-Дек 22:23

Часовой пояс: UTC + 3


Вы можете начинать темы
Вы можете отвечать на сообщения
Вы не можете редактировать свои сообщения
Вы не можете удалять свои сообщения
Вы не можете голосовать в опросах
Вы не можете прикреплять файлы к сообщениям
Вы можете скачивать файлы