(Classical) Онсло – Струнные квинтеты № 12 и 13 / Onslow – String Quintets, Opp. 34 & 35 (Quintett Momento Musicale: Dorothee Stromberg, Andreas Trankner, Michael Clauss, Hans-Jorg Pohl, Steffen Slowik) - 2004, FLAC (image+.cue) lossless


 

[Цитировать]

Онсло – Струнные квинтеты № 12 и 13 / Onslow – String Quintets, Opp. 34 & 35 (Quintett Momento Musicale: Dorothée Stromberg, Andreas Tränkner, Michael Clauß, Hans-Jörg Pohl, Steffen Slowik)
Жанр: Classical
Страна-производитель диска: Германия
Год издания диска: 2004
Издатель (лейбл): MDG scene
Номер по каталогу: MDG 603 1253-2
Дата записи: 12 — 15 августа 2002 г., Марклеберг.
Аудиокодек: FLAC
Тип рипа: image+.cue
Битрейт аудио: lossless
Продолжительность: 01:04:41
Источник: odeonmusic
Наличие сканов в содержимом раздачи: да
Треклист:
Андре Жорж Луи Онсло (1784 — 1853).
Струнный квинтет № 12 a-moll, op. 34 (1828).
01. I. Allegro [13:47].
02. II. Minuetto. Allegro moderato. — Poco più lento. — Tempo I [06:06].
03. III. Adagio espressivo [08:05].
04. IV. Finale. Allegro non troppo presto [06:29].
Струнный квинтет № 13 G-dur, op. 35 (1828).
05. I. Allegro spiritoso assai [10:21].
06. II. Minuetto. Allegro moderato. — Maggiore. — Minore [05:08].
07. III. Andante cantabile. — Minore. — Maggiore [07:05].
08. IV. Finale. Presto [07:38].
Исполнители:
Quintett Momento Musicale:
Dorothée Stromberg (скрипка),
Andreas Tränkner (скрипка),
Michael Clauß (альт),
Hans-Jörg Pohl (виолончель),
Steffen Slowik (контрабас).

Лог создания рипа

Exact Audio Copy V1.0 beta 3 from 29. August 2011
EAC extraction logfile from 13. May 2014, 20:30
Quintett Momento Musicale / Onslow - String Quintets opp.34 & 35 - Quintett Momento Musicale
Used drive : TSSTcorpCDDVDW SH-222BB Adapter: 2 ID: 1
Read mode : Secure
Utilize accurate stream : Yes
Defeat audio cache : Yes
Make use of C2 pointers : No
Read offset correction : 6
Overread into Lead-In and Lead-Out : No
Fill up missing offset samples with silence : Yes
Delete leading and trailing silent blocks : No
Null samples used in CRC calculations : Yes
Used interface : Native Win32 interface for Win NT & 2000
Used output format : User Defined Encoder
Selected bitrate : 896 kBit/s
Quality : High
Add ID3 tag : No
Command line compressor : C:\Program Files\Exact Audio Copy\FLAC\FLAC.EXE
Additional command line options : -8 -V -T "TITLE=%title%" -T "ARTIST=%artist%" -T "ALBUMARTIST=%albumartist%" -T "ALBUM=%albumtitle%" -T "DATE=%year%" -T "TRACKNUMBER=%tracknr%" -T "TRACKTOTAL=%numtracks%" -T "GENRE=%genre%" -T "COMMENT=%comment%" -T "PERFORMER=%albuminterpret%" -T "COMPOSER=%composer%" %source% -o %dest%
TOC of the extracted CD
Track | Start | Length | Start sector | End sector
---------------------------------------------------------
1 | 0:00.00 | 13:47.60 | 0 | 62084
2 | 13:47.60 | 6:06.15 | 62085 | 89549
3 | 19:54.00 | 8:05.07 | 89550 | 125931
4 | 27:59.07 | 6:28.68 | 125932 | 155099
5 | 34:28.00 | 10:21.55 | 155100 | 201729
6 | 44:49.55 | 5:08.22 | 201730 | 224851
7 | 49:58.02 | 7:04.73 | 224852 | 256724
8 | 57:03.00 | 7:38.25 | 256725 | 291099
Range status and errors
Selected range
Filename E:\4000\[4115] Onslow – String Quintets opp.34 & 35 – Quintett Momento Musicale\Onslow - String Quintets opp.34 & 35 - Quintett Momento Musicale.wav
Peak level 90.0 %
Extraction speed 7.1 X
Range quality 100.0 %
Test CRC 633129AE
Copy CRC 633129AE
Copy OK
No errors occurred
AccurateRip summary
Track 1 accurately ripped (confidence 2) [F38AB449] (AR v2)
Track 2 accurately ripped (confidence 2) [8FF36D73] (AR v2)
Track 3 accurately ripped (confidence 2) [3D49981D] (AR v2)
Track 4 accurately ripped (confidence 2) [072448D5] (AR v2)
Track 5 accurately ripped (confidence 2) [174FA52F] (AR v2)
Track 6 accurately ripped (confidence 2) [FE2C0B2E] (AR v2)
Track 7 accurately ripped (confidence 2) [64E4CBB1] (AR v2)
Track 8 accurately ripped (confidence 2) [9C10CD48] (AR v2)
All tracks accurately ripped
End of status report
==== Log checksum BC5852155C9A530227D4423A656C51CFFFB01653164F30981DBA43A5D427FFEB ====

Содержание индексной карты (.CUE)

REM GENRE Classical
REM DATE 2006
REM DISCID 620F2908
REM COMMENT "ExactAudioCopy v1.0b3"
PERFORMER "Quintett Momento Musicale"
TITLE "Onslow – String quintets, Opp. 34 & 35 – Quintett Momento Musicale"
FILE "Onslow – String quintets, Opp. 34 & 35 – Quintett Momento Musicale.flac" WAVE
TRACK 01 AUDIO
TITLE "String Quintet No. 12 in A minor, Op. 34 - I. Allegro"
PERFORMER "Quintett Momento Musicale"
INDEX 01 00:00:00
TRACK 02 AUDIO
TITLE "String Quintet No. 12 in A minor, Op. 34 - II. Minuetto. Allegro moderato"
PERFORMER "Quintett Momento Musicale"
INDEX 00 13:43:32
INDEX 01 13:47:60
TRACK 03 AUDIO
TITLE "String Quintet No. 12 in A minor, Op. 34 - III. Adagio espressivo"
PERFORMER "Quintett Momento Musicale"
INDEX 00 19:48:62
INDEX 01 19:54:00
TRACK 04 AUDIO
TITLE "String Quintet No. 12 in A minor, Op. 34 - IV. Finale. Allegro non troppo presto"
PERFORMER "Quintett Momento Musicale"
INDEX 01 27:59:07
TRACK 05 AUDIO
TITLE "String Quintet No. 13 in G major, Op. 35 - I. Allegro spiritoso assai"
PERFORMER "Quintett Momento Musicale"
INDEX 00 34:19:50
INDEX 01 34:28:00
TRACK 06 AUDIO
TITLE "String Quintet No. 13 in G major, Op. 35 - II. Minuetto. Allegro moderato"
PERFORMER "Quintett Momento Musicale"
INDEX 01 44:49:55
TRACK 07 AUDIO
TITLE "String Quintet No. 13 in G major, Op. 35 - III. Andante cantabile"
PERFORMER "Quintett Momento Musicale"
INDEX 01 49:58:02
TRACK 08 AUDIO
TITLE "String Quintet No. 13 in G major, Op. 35 - IV. Finale. Presto"
PERFORMER "Quintett Momento Musicale"
INDEX 01 57:03:00

Вариант индексной карты (.CUE) с выставленными во втором квинтете зазорами

REM GENRE Classical
REM DATE 2006
REM DISCID 620F2908
REM COMMENT "ExactAudioCopy v1.0b3"
PERFORMER "Quintett Momento Musicale"
TITLE "Onslow – String quintets, Opp. 34 & 35 – Quintett Momento Musicale"
FILE "Onslow – String quintets, Opp. 34 & 35 – Quintett Momento Musicale.flac" WAVE
TRACK 01 AUDIO
TITLE "String Quintet No. 12 in A minor, Op. 34 - I. Allegro"
PERFORMER "Quintett Momento Musicale"
INDEX 01 00:00:00
TRACK 02 AUDIO
TITLE "String Quintet No. 12 in A minor, Op. 34 - II. Minuetto. Allegro moderato"
PERFORMER "Quintett Momento Musicale"
INDEX 00 13:43:32
INDEX 01 13:47:60
TRACK 03 AUDIO
TITLE "String Quintet No. 12 in A minor, Op. 34 - III. Adagio espressivo"
PERFORMER "Quintett Momento Musicale"
INDEX 00 19:48:62
INDEX 01 19:54:00
TRACK 04 AUDIO
TITLE "String Quintet No. 12 in A minor, Op. 34 - IV. Finale. Allegro non troppo presto"
PERFORMER "Quintett Momento Musicale"
INDEX 01 27:59:07
TRACK 05 AUDIO
TITLE "String Quintet No. 13 in G major, Op. 35 - I. Allegro spiritoso assai"
PERFORMER "Quintett Momento Musicale"
INDEX 00 34:19:50
INDEX 01 34:28:00
TRACK 06 AUDIO
TITLE "String Quintet No. 13 in G major, Op. 35 - II. Minuetto. Allegro moderato"
PERFORMER "Quintett Momento Musicale"
INDEX 00 44:47:53
INDEX 01 44:49:55
TRACK 07 AUDIO
TITLE "String Quintet No. 13 in G major, Op. 35 - III. Andante cantabile"
PERFORMER "Quintett Momento Musicale"
INDEX 00 49:56:02
INDEX 01 49:58:02
TRACK 08 AUDIO
TITLE "String Quintet No. 13 in G major, Op. 35 - IV. Finale. Presto"
PERFORMER "Quintett Momento Musicale"
INDEX 01 57:03:00
INDEX 02 64:39:62



Показать сообщения:    

Текущее время: 11-Дек 03:22

Часовой пояс: UTC + 3


Вы не можете начинать темы
Вы не можете отвечать на сообщения
Вы не можете редактировать свои сообщения
Вы не можете удалять свои сообщения
Вы не можете голосовать в опросах
Вы не можете прикреплять файлы к сообщениям
Вы не можете скачивать файлы