Рихард Вагнер - Летучий Голландец / Richard Wagner - Der fliegende Hollander (The Flying Dutchman) Rolf Reuter / Рольф Ройтер (Joachim Herz / Йоахим Херц) [1964, Oper-Film B&W, DVDRip-AVC][Русские субтитры]


 

[Цитировать]

-Восточно-Германская студия DEFA представляет
РИХАРД ВАГНЕР
22 мая (May 22,) 1813 — 13 февраля (February 13,) 1883
— ЛЕТУЧИЙ ГОЛЛАНДЕЦ —
Оригинальная телеверсия,
восстановленная к 200-летию со дня рождения композитора
-- Год записи: 1964 kinopoisk
Год выхода: 2013
Лейбл: DEFA-Studio für Spielfilme
Страна: DDR
Жанр: Oper-Film
Продолжительность: 97 min.
Язык: Немецкий
Субтитры: РУССКИЕ[Спасибо, GUNNERSAURUS]
•••
Качество видео: DVDRip-AVC
Исходник: DVD9
Формат/Контейнер: MKV
Видео кодек: H.264
Аудио кодек: AC3
Видео поток: 720@957x436, 1616 kbps, 25,000 fps.
Аудио поток: Deutsch, 448 kbps, 48,0 KHz, 6 ch
оригинальный
•••
Режиссёр: ЙОАХИМ ХЕРЦ
Joachim Herz
Сценарий: ЙОАХИМ ХЕРЦ и ХАРОЛЬД ХОРН
Joachim Herz & Harald Horn
Костюмер: ГЕРХАРД КАДДАЦ
Gerhard Kaddatz
Хореограф: РУТ БЕРГХАУС
Ruth Berghaus-

Действующие лица и исполнители

***
СЕНТА (Senta) - АННА ПРУЦНАЛЬ (Anna Prucnal)♫ Gerda Hannemann - ГЕРДА ХАННЕМАНН
ЛЕТУЧИЙ ГОЛЛАНДЕЦ (Der Holländer) - ФРЕЭД ДЮРЕН (Fred Düren)
♫ Rainer Lüdecke - РАЙНЕР ЛЮДЕККЕ
ДАЛАНД (Daland) - ГЕРД ЭЛЕРС (Gerd Ehlers)
♫ Hans Krämer - ХАНС КРЕМЕР
МАРИЯ (Mary) - МАТИЛЬДЕ ДАНЕГГЕР (Mathilde Danegger)
♫ Katrin Wölzl - КАТРИН ВЁЛЬЦЕЛЬ
ЭРИК (Erik) - ХЕРБЕРТ ГРЕДТКЕ (Herbert Graedtke)
♫ Rolf Apreck - РОЛЬФ АПРЕК
РУЛЕВОЙ (Steuermann) - ХАНС-ПЕТЕР РАЙНЕККЕ (Hans-Peter Reinecke)
♫ Karl-Friedrich Hölzke - КАРЛ-ФРИДРИХ ХЁЛЬЦКЕ
***
CHOR der Leipziger Oper
Gewandhausorchester Leipzig
Дирижёр: РОЛЬФ РОЙТЕР (Rolf Reuter)
Хормейстер: АНДРЕАС ПИСКЕ (Andreas Pieske)
***

Скриншоты

MediaInfo

-

x264 .log


avs [info]: 720x436p 807:607 @ 25/1 fps (cfr)
x264 [info]: using SAR=807/607
x264 [info]: using cpu capabilities: MMX2 SSE2Fast SSEMisalign LZCNT
x264 [info]: profile High, level 4.1
x264 [info]: frame I:746 Avg QP:17.02 size: 39449
x264 [info]: frame P:42108 Avg QP:18.19 size: 15953
x264 [info]: frame B:103297 Avg QP:20.22 size: 4647
x264 [info]: consecutive B-frames: 8.9% 1.5% 9.9% 30.8% 19.6% 27.2% 1.1% 0.4% 0.2% 0.5%
x264 [info]: mb I I16..4: 20.1% 64.5% 15.4%
x264 [info]: mb P I16..4: 0.1% 8.9% 1.3% P16..4: 24.3% 27.1% 14.4% 2.9% 0.6% skip:20.4%
x264 [info]: mb B I16..4: 0.0% 1.0% 0.2% B16..8: 27.4% 17.9% 2.7% direct: 6.0% skip:44.8% L0:33.9% L1:37.4% BI:28.7%
x264 [info]: 8x8 transform intra:83.1% inter:52.3%
x264 [info]: coded y,uvDC,uvAC intra: 91.4% 0.1% 0.0% inter: 27.2% 0.0% 0.0%
x264 [info]: i16 v,h,dc,p: 61% 9% 11% 20%
x264 [info]: i8 v,h,dc,ddl,ddr,vr,hd,vl,hu: 16% 7% 12% 9% 10% 13% 8% 13% 11%
x264 [info]: i4 v,h,dc,ddl,ddr,vr,hd,vl,hu: 44% 6% 6% 5% 8% 11% 6% 8% 5%
x264 [info]: i8c dc,h,v,p: 32% 55% 0% 13%
x264 [info]: Weighted P-Frames: Y:18.6% UV:0.0%
x264 [info]: ref P L0: 49.3% 13.3% 12.7% 5.4% 4.4% 3.5% 3.2% 1.9% 1.9% 1.7% 1.7% 0.9% 0.1%
x264 [info]: ref B L0: 86.5% 6.0% 2.4% 1.4% 1.0% 0.9% 0.7% 0.5% 0.4% 0.3%
x264 [info]: ref B L1: 98.3% 1.7%
x264 [info]: kb/s:1616.39
x264 [total]: encoded 146151 frames, 2.03 fps, 1616.39 kb/s
-
General
Unique ID : 178688470480021431012065340962258737904 (0x866E25C934F3BAFDB1C99592A9C6DAF0)
Complete name : D:\Temp Ru.Tracker\Der fliegende Hollander (1964).mkv
Format : Matroska
Format version : Version 4 / Version 2
File size : 1.41 GiB
Duration : 1h 37mn
Overall bit rate : 2 066 Kbps
Encoded date : UTC 2014-11-11 15:34:32
Writing application : mkvmerge v6.6.0 ('The Edge Of The In Between') built on Dec 1 2013 17:55:00
Writing library : libebml v1.3.0 + libmatroska v1.4.1
Video
ID : 1
Format : AVC
Format/Info : Advanced Video Codec
Format profile : High@L4.1
Format settings, CABAC : Yes
Format settings, ReFrames : 11 frames
Codec ID : V_MPEG4/ISO/AVC
Duration : 1h 37mn
Bit rate : 1 577 Kbps
Width : 720 pixels
Height : 436 pixels
Display aspect ratio : 2.2:1
Frame rate mode : Constant
Frame rate : 25.000 fps
Color space : YUV
Chroma subsampling : 4:2:0
Bit depth : 8 bits
Scan type : Progressive
Bits/(Pixel*Frame) : 0.201
Stream size : 1.07 GiB (76%)
Writing library : x264 core 130 r2273 b3065e6
Encoding settings : cabac=1 / ref=11 / deblock=1:-3:-3 / analyse=0x3:0x133 / me=umh / subme=11 / psy=1 / psy_rd=1.05:0.10 / mixed_ref=1 / me_range=32 / chroma_me=1 / trellis=2 / 8x8dct=1 / cqm=0 / deadzone=21,11 / fast_pskip=1 / chroma_qp_offset=-3 / threads=4 / lookahead_threads=1 / sliced_threads=0 / nr=0 / decimate=1 / interlaced=0 / bluray_compat=0 / constrained_intra=0 / bframes=9 / b_pyramid=2 / b_adapt=2 / b_bias=0 / direct=1 / weightb=1 / open_gop=0 / weightp=2 / keyint=250 / keyint_min=25 / scenecut=40 / intra_refresh=0 / rc=crf / mbtree=0 / crf=18.0 / qcomp=0.65 / qpmin=0 / qpmax=69 / qpstep=4 / ip_ratio=1.40 / pb_ratio=1.30 / aq=1:0.90
Language : English
Default : Yes
Forced : No
Audio
ID : 2
Format : AC-3
Format/Info : Audio Coding 3
Mode extension : CM (complete main)
Format settings, Endianness : Big
Codec ID : A_AC3
Duration : 1h 37mn
Bit rate mode : Constant
Bit rate : 448 Kbps
Channel(s) : 5 channels
Channel positions : Front: L C R, Side: L R
Sampling rate : 48.0 KHz
Bit depth : 16 bits
Compression mode : Lossy
Stream size : 312 MiB (22%)
Language : German
Default : Yes
Forced : No
Text
ID : 3
Format : UTF-8
Codec ID : S_TEXT/UTF8
Codec ID/Info : UTF-8 Plain Text
Language : Russian
Default : Yes
Forced : No
-***
За атрибуцию немецкого текста большое спасибо SUCHER08



Показать сообщения:    

Текущее время: 04-Дек 23:18

Часовой пояс: UTC + 3


Вы не можете начинать темы
Вы не можете отвечать на сообщения
Вы не можете редактировать свои сообщения
Вы не можете удалять свои сообщения
Вы не можете голосовать в опросах
Вы не можете прикреплять файлы к сообщениям
Вы не можете скачивать файлы