(Opera) Philip Glass - Spuren der Verirrten - The Lost (2cd) - 2014, FLAC (tracks+.cue) lossless


 

[Цитировать]

Philip Glass - Spuren der Verirrten - The Lost (2cd)
Жанр: Opera
Страна-производитель диска: USA
Год издания диска: 2014
Издатель (лейбл): Orange Mountain Music
Номер по каталогу: OMM097
Аудиокодек: FLAC
Тип рипа: tracks+.cue
Битрейт аудио: lossless
Источник: скачано с
сайт-источник/ник/другое: demonoid
Наличие сканов в содержимом раздачи: да
Треклист:
Disc: 1
1. Act I - Prologue
2. Act I - Scene 1
3. Act I - Scene 2
4. Act I - Scene 3
5. Act I - Scene 4
6. Act I - Scene 5
7. Act I - Scene 6
8. Act I - Scene 7
9. Act I - Scene 8
10. Act I - Scene 9
Disc: 2
1. Act II - Scene 1
2. Act II - Scene 2
3. Act II - Scene 3: Musical Interlude
4. Act II - Scene 4
5. Act II - Scene 5
6. Act II - Scene 6
7. Act II - Scene 7
8. Act II - Scene 8
9. Act II - Scene 9
10. Act II - Scene 10
11. Act III - Scene 1-2
12. Act III - Scene 3
Исполнители:
Dennis Russell Davies,
Bruckner Orchester Linz,
Landestheater Linz,
Bram de Beul, Sophy Ribrault, Jacques Le Roux, Karen Robertson, Gotho Griesmeier, Martin Achrainer, Martha Hirschmann, Matthäus Schmidlechner, Dominik Nekel, Elisabeth Breuer, Christa Ratzenbock, Lutz Zeidler & Peter Pertusini

Лог создания рипа CD1

Exact Audio Copy V1.0 beta 3 from 29. August 2011
EAC extraction logfile from 29. September 2014, 12:14
Philip Glass / Spuren der Verirrten - The Lost (1-2)
Used drive : HL-DT-STDVDRAM GE20LU10 Adapter: 1 ID: 0
Read mode : Burst
Read offset correction : 667
Overread into Lead-In and Lead-Out : No
Fill up missing offset samples with silence : Yes
Delete leading and trailing silent blocks : No
Null samples used in CRC calculations : Yes
Used interface : Native Win32 interface for Win NT & 2000
Gap handling : Appended to previous track
Used output format : User Defined Encoder
Selected bitrate : 1024 kBit/s
Quality : High
Add ID3 tag : No
Command line compressor : C:\Program Files (x86)\Exact Audio Copy\Flac\flac.exe
Additional command line options : -8 -V -T "ARTIST=%artist%" -T "TITLE=%title%" -T "ALBUM=%albumtitle%" -T "DATE=%year%" -T "TRACKNUMBER=%tracknr%" -T "GENRE=%genre%" -T "PERFORMER=%albuminterpret%" -T "COMPOSER=%composer%" %haslyrics%--tag-from-file=LYRICS="%lyricsfile%"%haslyrics% -T "ALBUMARTIST=%albumartist%" -T "DISCNUMBER=%cdnumber%" -T "TOTALDISCS=%totalcds%" -T "TOTALTRACKS=%numtracks%" -T "COMMENT=%comment%" %source% -o %dest%
TOC of the extracted CD
Track | Start | Length | Start sector | End sector
---------------------------------------------------------
1 | 0:00.00 | 2:33.56 | 0 | 11530
2 | 2:33.56 | 5:04.07 | 11531 | 34337
3 | 7:37.63 | 3:21.73 | 34338 | 49485
4 | 10:59.61 | 2:59.34 | 49486 | 62944
5 | 13:59.20 | 4:55.63 | 62945 | 85132
6 | 18:55.08 | 3:26.19 | 85133 | 100601
7 | 22:21.27 | 3:47.12 | 100602 | 117638
8 | 26:08.39 | 5:35.14 | 117639 | 142777
9 | 31:43.53 | 4:36.42 | 142778 | 163519
10 | 36:20.20 | 10:54.61 | 163520 | 212630
Track 1
Filename D:\EACrips\Philip Glass-Spuren der Verirrten - The Lost (1-2) (FLAC-EAC)\Philip Glass-Spuren der Verirrten - The Lost (1-2)-01-Act I - Prologue.wav
Pre-gap length 0:00:02.00
Peak level 40.5 %
Extraction speed 17.8 X
Test CRC 848B2748
Copy CRC 848B2748
Track not present in AccurateRip database
Copy OK
Track 2
Filename D:\EACrips\Philip Glass-Spuren der Verirrten - The Lost (1-2) (FLAC-EAC)\Philip Glass-Spuren der Verirrten - The Lost (1-2)-02-Act I - Scene 1.wav
Peak level 54.2 %
Extraction speed 20.1 X
Test CRC FD5DE89F
Copy CRC FD5DE89F
Track not present in AccurateRip database
Copy OK
Track 3
Filename D:\EACrips\Philip Glass-Spuren der Verirrten - The Lost (1-2) (FLAC-EAC)\Philip Glass-Spuren der Verirrten - The Lost (1-2)-03-Act I - Scene 2.wav
Peak level 40.3 %
Extraction speed 21.9 X
Test CRC DB7CDCB1
Copy CRC DB7CDCB1
Track not present in AccurateRip database
Copy OK
Track 4
Filename D:\EACrips\Philip Glass-Spuren der Verirrten - The Lost (1-2) (FLAC-EAC)\Philip Glass-Spuren der Verirrten - The Lost (1-2)-04-Act I - Scene 3.wav
Peak level 48.4 %
Extraction speed 23.3 X
Test CRC 1C8D453E
Copy CRC 1C8D453E
Track not present in AccurateRip database
Copy OK
Track 5
Filename D:\EACrips\Philip Glass-Spuren der Verirrten - The Lost (1-2) (FLAC-EAC)\Philip Glass-Spuren der Verirrten - The Lost (1-2)-05-Act I - Scene 4.wav
Peak level 67.1 %
Extraction speed 25.0 X
Test CRC AEF21012
Copy CRC AEF21012
Track not present in AccurateRip database
Copy OK
Track 6
Filename D:\EACrips\Philip Glass-Spuren der Verirrten - The Lost (1-2) (FLAC-EAC)\Philip Glass-Spuren der Verirrten - The Lost (1-2)-06-Act I - Scene 5.wav
Peak level 78.0 %
Extraction speed 26.4 X
Test CRC 795DBD96
Copy CRC 795DBD96
Track not present in AccurateRip database
Copy OK
Track 7
Filename D:\EACrips\Philip Glass-Spuren der Verirrten - The Lost (1-2) (FLAC-EAC)\Philip Glass-Spuren der Verirrten - The Lost (1-2)-07-Act I - Scene 6.wav
Peak level 49.3 %
Extraction speed 27.8 X
Test CRC A21E3481
Copy CRC A21E3481
Track not present in AccurateRip database
Copy OK
Track 8
Filename D:\EACrips\Philip Glass-Spuren der Verirrten - The Lost (1-2) (FLAC-EAC)\Philip Glass-Spuren der Verirrten - The Lost (1-2)-08-Act I - Scene 7.wav
Peak level 72.5 %
Extraction speed 29.5 X
Test CRC 363DCED0
Copy CRC 363DCED0
Track not present in AccurateRip database
Copy OK
Track 9
Filename D:\EACrips\Philip Glass-Spuren der Verirrten - The Lost (1-2) (FLAC-EAC)\Philip Glass-Spuren der Verirrten - The Lost (1-2)-09-Act I - Scene 8.wav
Peak level 37.0 %
Extraction speed 31.1 X
Test CRC DF12A533
Copy CRC DF12A533
Track not present in AccurateRip database
Copy OK
Track 10
Filename D:\EACrips\Philip Glass-Spuren der Verirrten - The Lost (1-2) (FLAC-EAC)\Philip Glass-Spuren der Verirrten - The Lost (1-2)-10-Act I - Scene 9.wav
Peak level 67.2 %
Extraction speed 33.6 X
Test CRC B275F835
Copy CRC B275F835
Track not present in AccurateRip database
Copy OK
None of the tracks are present in the AccurateRip database
No errors occurred
End of status report
---- CUETools DB Plugin V2.1.3
[CTDB TOCID: tgbss0gYPDu0SiRbLvCkTdZg10E-] disk not present in database, Submit result: tgbss0gYPDu0SiRbLvCkTdZg10E- has been uploaded
==== Log checksum 6B2EF5F4C8D1F56C3CFD44944431CD7541F6B376441B4E7BB1FEED4A8335C738 ====

Лог создания рипа CD1

Exact Audio Copy V1.0 beta 3 from 29. August 2011
EAC extraction logfile from 29. September 2014, 12:35
Philip Glass / Spuren der Verirrten - The Lost (2-2)
Used drive : HL-DT-STDVDRAM GE20LU10 Adapter: 1 ID: 0
Read mode : Burst
Read offset correction : 667
Overread into Lead-In and Lead-Out : No
Fill up missing offset samples with silence : Yes
Delete leading and trailing silent blocks : No
Null samples used in CRC calculations : Yes
Used interface : Native Win32 interface for Win NT & 2000
Gap handling : Appended to previous track
Used output format : User Defined Encoder
Selected bitrate : 1024 kBit/s
Quality : High
Add ID3 tag : No
Command line compressor : C:\Program Files (x86)\Exact Audio Copy\Flac\flac.exe
Additional command line options : -8 -V -T "ARTIST=%artist%" -T "TITLE=%title%" -T "ALBUM=%albumtitle%" -T "DATE=%year%" -T "TRACKNUMBER=%tracknr%" -T "GENRE=%genre%" -T "PERFORMER=%albuminterpret%" -T "COMPOSER=%composer%" %haslyrics%--tag-from-file=LYRICS="%lyricsfile%"%haslyrics% -T "ALBUMARTIST=%albumartist%" -T "DISCNUMBER=%cdnumber%" -T "TOTALDISCS=%totalcds%" -T "TOTALTRACKS=%numtracks%" -T "COMMENT=%comment%" %source% -o %dest%
TOC of the extracted CD
Track | Start | Length | Start sector | End sector
---------------------------------------------------------
1 | 0:00.00 | 2:03.26 | 0 | 9250
2 | 2:03.26 | 3:26.03 | 9251 | 24703
3 | 5:29.29 | 3:41.54 | 24704 | 41332
4 | 9:11.08 | 2:14.62 | 41333 | 51444
5 | 11:25.70 | 1:16.03 | 51445 | 57147
6 | 12:41.73 | 1:17.27 | 57148 | 62949
7 | 13:59.25 | 2:57.53 | 62950 | 76277
8 | 16:57.03 | 1:39.33 | 76278 | 83735
9 | 18:36.36 | 3:21.40 | 83736 | 98850
10 | 21:58.01 | 8:20.04 | 98851 | 136354
11 | 30:18.05 | 6:12.20 | 136355 | 164274
12 | 36:30.25 | 13:16.15 | 164275 | 223989
Track 1
Filename D:\EACrips\Philip Glass-Spuren der Verirrten - The Lost (2-2) (FLAC-EAC)\Philip Glass-Spuren der Verirrten - The Lost (2-2)-01-Act II - Scene 1.wav
Pre-gap length 0:00:02.00
Peak level 55.4 %
Extraction speed 17.6 X
Test CRC 44393A77
Copy CRC 44393A77
Track not present in AccurateRip database
Copy OK
Track 2
Filename D:\EACrips\Philip Glass-Spuren der Verirrten - The Lost (2-2) (FLAC-EAC)\Philip Glass-Spuren der Verirrten - The Lost (2-2)-02-Act II - Scene 2.wav
Peak level 95.3 %
Extraction speed 19.4 X
Test CRC 6588DA7E
Copy CRC 6588DA7E
Track not present in AccurateRip database
Copy OK
Track 3
Filename D:\EACrips\Philip Glass-Spuren der Verirrten - The Lost (2-2) (FLAC-EAC)\Philip Glass-Spuren der Verirrten - The Lost (2-2)-03-Act II - Scene 3 - Musical Interlude.wav
Peak level 60.7 %
Extraction speed 21.1 X
Test CRC C1FCF0C1
Copy CRC C1FCF0C1
Track not present in AccurateRip database
Copy OK
Track 4
Filename D:\EACrips\Philip Glass-Spuren der Verirrten - The Lost (2-2) (FLAC-EAC)\Philip Glass-Spuren der Verirrten - The Lost (2-2)-04-Act II - Scene 4.wav
Peak level 78.2 %
Extraction speed 22.3 X
Test CRC 27C08C3F
Copy CRC 27C08C3F
Track not present in AccurateRip database
Copy OK
Track 5
Filename D:\EACrips\Philip Glass-Spuren der Verirrten - The Lost (2-2) (FLAC-EAC)\Philip Glass-Spuren der Verirrten - The Lost (2-2)-05-Act II - Scene 5.wav
Peak level 44.7 %
Extraction speed 22.5 X
Test CRC 8D5E0AE3
Copy CRC 8D5E0AE3
Track not present in AccurateRip database
Copy OK
Track 6
Filename D:\EACrips\Philip Glass-Spuren der Verirrten - The Lost (2-2) (FLAC-EAC)\Philip Glass-Spuren der Verirrten - The Lost (2-2)-06-Act II - Scene 6.wav
Peak level 28.9 %
Extraction speed 23.1 X
Test CRC BF6A6114
Copy CRC BF6A6114
Track not present in AccurateRip database
Copy OK
Track 7
Filename D:\EACrips\Philip Glass-Spuren der Verirrten - The Lost (2-2) (FLAC-EAC)\Philip Glass-Spuren der Verirrten - The Lost (2-2)-07-Act II - Scene 7.wav
Peak level 40.1 %
Extraction speed 24.4 X
Test CRC 36B519CB
Copy CRC 36B519CB
Track not present in AccurateRip database
Copy OK
Track 8
Filename D:\EACrips\Philip Glass-Spuren der Verirrten - The Lost (2-2) (FLAC-EAC)\Philip Glass-Spuren der Verirrten - The Lost (2-2)-08-Act II - Scene 8.wav
Peak level 78.8 %
Extraction speed 25.1 X
Test CRC 610A865D
Copy CRC 610A865D
Track not present in AccurateRip database
Copy OK
Track 9
Filename D:\EACrips\Philip Glass-Spuren der Verirrten - The Lost (2-2) (FLAC-EAC)\Philip Glass-Spuren der Verirrten - The Lost (2-2)-09-Act II - Scene 9.wav
Peak level 73.0 %
Extraction speed 26.3 X
Test CRC E70C3467
Copy CRC E70C3467
Track not present in AccurateRip database
Copy OK
Track 10
Filename D:\EACrips\Philip Glass-Spuren der Verirrten - The Lost (2-2) (FLAC-EAC)\Philip Glass-Spuren der Verirrten - The Lost (2-2)-10-Act II - Scene 10.wav
Peak level 65.3 %
Extraction speed 28.6 X
Test CRC E8A81D96
Copy CRC E8A81D96
Track not present in AccurateRip database
Copy OK
Track 11
Filename D:\EACrips\Philip Glass-Spuren der Verirrten - The Lost (2-2) (FLAC-EAC)\Philip Glass-Spuren der Verirrten - The Lost (2-2)-11-Act III - Scene 1-2.wav
Peak level 67.0 %
Extraction speed 30.9 X
Test CRC 14CC2C21
Copy CRC 14CC2C21
Track not present in AccurateRip database
Copy OK
Track 12
Filename D:\EACrips\Philip Glass-Spuren der Verirrten - The Lost (2-2) (FLAC-EAC)\Philip Glass-Spuren der Verirrten - The Lost (2-2)-12-Act III - Scene 3.wav
Peak level 96.2 %
Extraction speed 34.0 X
Test CRC 745AB18A
Copy CRC 745AB18A
Track not present in AccurateRip database
Copy OK
None of the tracks are present in the AccurateRip database
No errors occurred
End of status report
---- CUETools DB Plugin V2.1.3
[CTDB TOCID: ODZbeKfZHRolyvmCg3_JTNxZTh0-] disk not present in database, Submit result: ODZbeKfZHRolyvmCg3_JTNxZTh0- has been uploaded
==== Log checksum 0BA18B84C9095A1DE6BEA89D0D1B07CA91FFADB0344020AFDCC7BF329E82B0CE ====

Содержание индексной карты (.CUE)CD1

REM GENRE Opera
REM DATE 2014
REM DISCID 790B130A
REM COMMENT "ExactAudioCopy v1.0b3"
PERFORMER "Philip Glass"
TITLE "Spuren der Verirrten - The Lost (1-2)"
FILE "Philip Glass-Spuren der Verirrten - The Lost (1-2)-01-Act I - Prologue.wav" WAVE
TRACK 01 AUDIO
TITLE "Act I - Prologue"
PERFORMER "Philip Glass"
FLAGS DCP
INDEX 01 00:00:00
FILE "Philip Glass-Spuren der Verirrten - The Lost (1-2)-02-Act I - Scene 1.wav" WAVE
TRACK 02 AUDIO
TITLE "Act I - Scene 1"
PERFORMER "Philip Glass"
FLAGS DCP
INDEX 01 00:00:00
FILE "Philip Glass-Spuren der Verirrten - The Lost (1-2)-03-Act I - Scene 2.wav" WAVE
TRACK 03 AUDIO
TITLE "Act I - Scene 2"
PERFORMER "Philip Glass"
FLAGS DCP
INDEX 01 00:00:00
FILE "Philip Glass-Spuren der Verirrten - The Lost (1-2)-04-Act I - Scene 3.wav" WAVE
TRACK 04 AUDIO
TITLE "Act I - Scene 3"
PERFORMER "Philip Glass"
FLAGS DCP
INDEX 01 00:00:00
FILE "Philip Glass-Spuren der Verirrten - The Lost (1-2)-05-Act I - Scene 4.wav" WAVE
TRACK 05 AUDIO
TITLE "Act I - Scene 4"
PERFORMER "Philip Glass"
FLAGS DCP
INDEX 01 00:00:00
FILE "Philip Glass-Spuren der Verirrten - The Lost (1-2)-06-Act I - Scene 5.wav" WAVE
TRACK 06 AUDIO
TITLE "Act I - Scene 5"
PERFORMER "Philip Glass"
FLAGS DCP
INDEX 01 00:00:00
FILE "Philip Glass-Spuren der Verirrten - The Lost (1-2)-07-Act I - Scene 6.wav" WAVE
TRACK 07 AUDIO
TITLE "Act I - Scene 6"
PERFORMER "Philip Glass"
FLAGS DCP
INDEX 01 00:00:00
FILE "Philip Glass-Spuren der Verirrten - The Lost (1-2)-08-Act I - Scene 7.wav" WAVE
TRACK 08 AUDIO
TITLE "Act I - Scene 7"
PERFORMER "Philip Glass"
FLAGS DCP
INDEX 01 00:00:00
FILE "Philip Glass-Spuren der Verirrten - The Lost (1-2)-09-Act I - Scene 8.wav" WAVE
TRACK 09 AUDIO
TITLE "Act I - Scene 8"
PERFORMER "Philip Glass"
FLAGS DCP
INDEX 01 00:00:00
FILE "Philip Glass-Spuren der Verirrten - The Lost (1-2)-10-Act I - Scene 9.wav" WAVE
TRACK 10 AUDIO
TITLE "Act I - Scene 9"
PERFORMER "Philip Glass"
FLAGS DCP
INDEX 01 00:00:00

Содержание индексной карты (.CUE)CD 2

REM GENRE Opera
REM DATE 2014
REM DISCID 850BAA0C
REM COMMENT "ExactAudioCopy v1.0b3"
PERFORMER "Philip Glass"
TITLE "Spuren der Verirrten - The Lost (2-2)"
FILE "Philip Glass-Spuren der Verirrten - The Lost (2-2)-01-Act II - Scene 1.wav" WAVE
TRACK 01 AUDIO
TITLE "Act II - Scene 1"
PERFORMER "Philip Glass"
FLAGS DCP
INDEX 01 00:00:00
FILE "Philip Glass-Spuren der Verirrten - The Lost (2-2)-02-Act II - Scene 2.wav" WAVE
TRACK 02 AUDIO
TITLE "Act II - Scene 2"
PERFORMER "Philip Glass"
FLAGS DCP
INDEX 01 00:00:00
FILE "Philip Glass-Spuren der Verirrten - The Lost (2-2)-03-Act II - Scene 3 - Musical Interlude.wav" WAVE
TRACK 03 AUDIO
TITLE "Act II - Scene 3 - Musical Interlude"
PERFORMER "Philip Glass"
FLAGS DCP
INDEX 01 00:00:00
FILE "Philip Glass-Spuren der Verirrten - The Lost (2-2)-04-Act II - Scene 4.wav" WAVE
TRACK 04 AUDIO
TITLE "Act II - Scene 4"
PERFORMER "Philip Glass"
FLAGS DCP
INDEX 01 00:00:00
FILE "Philip Glass-Spuren der Verirrten - The Lost (2-2)-05-Act II - Scene 5.wav" WAVE
TRACK 05 AUDIO
TITLE "Act II - Scene 5"
PERFORMER "Philip Glass"
FLAGS DCP
INDEX 01 00:00:00
FILE "Philip Glass-Spuren der Verirrten - The Lost (2-2)-06-Act II - Scene 6.wav" WAVE
TRACK 06 AUDIO
TITLE "Act II - Scene 6"
PERFORMER "Philip Glass"
FLAGS DCP
INDEX 01 00:00:00
FILE "Philip Glass-Spuren der Verirrten - The Lost (2-2)-07-Act II - Scene 7.wav" WAVE
TRACK 07 AUDIO
TITLE "Act II - Scene 7"
PERFORMER "Philip Glass"
FLAGS DCP
INDEX 01 00:00:00
FILE "Philip Glass-Spuren der Verirrten - The Lost (2-2)-08-Act II - Scene 8.wav" WAVE
TRACK 08 AUDIO
TITLE "Act II - Scene 8"
PERFORMER "Philip Glass"
FLAGS DCP
INDEX 01 00:00:00
FILE "Philip Glass-Spuren der Verirrten - The Lost (2-2)-09-Act II - Scene 9.wav" WAVE
TRACK 09 AUDIO
TITLE "Act II - Scene 9"
PERFORMER "Philip Glass"
FLAGS DCP
INDEX 01 00:00:00
FILE "Philip Glass-Spuren der Verirrten - The Lost (2-2)-10-Act II - Scene 10.wav" WAVE
TRACK 10 AUDIO
TITLE "Act II - Scene 10"
PERFORMER "Philip Glass"
FLAGS DCP
INDEX 01 00:00:00
FILE "Philip Glass-Spuren der Verirrten - The Lost (2-2)-11-Act III - Scene 1-2.wav" WAVE
TRACK 11 AUDIO
TITLE "Act III - Scene 1-2"
PERFORMER "Philip Glass"
FLAGS DCP
INDEX 01 00:00:00
FILE "Philip Glass-Spuren der Verirrten - The Lost (2-2)-12-Act III - Scene 3.wav" WAVE
TRACK 12 AUDIO
TITLE "Act III - Scene 3"
PERFORMER "Philip Glass"
FLAGS DCP
INDEX 01 00:00:00



Показать сообщения:    

Текущее время: 09-Дек 18:29

Часовой пояс: UTC + 3


Вы не можете начинать темы
Вы не можете отвечать на сообщения
Вы не можете редактировать свои сообщения
Вы не можете удалять свои сообщения
Вы не можете голосовать в опросах
Вы не можете прикреплять файлы к сообщениям
Вы не можете скачивать файлы