(Opera) Giordano - Mala vita (Graziani, di Gregorio, Miccoli, Simeoli - Orchestra Lirico Sinfonica della Capitanata, Cavallaro) - 2003, APE (image+.cue) lossless


 

[Цитировать]

Umberto Giordano - Mala Vita
Жанр: Opera
Страна-производитель диска: Italy
Год издания диска: 2003
Издатель (лейбл): Bongiovanni
Номер по каталогу: GB 2348 2
Дата записи: 2002
Аудиокодек: APE
Тип рипа: image+.cue
Битрейт аудио: lossless
Продолжительность: 74'09
Источник: собственный рип
Наличие сканов в содержимом раздачи: да
Треклист:
1. Act 1. Scena. Son grida! Sentite
2. Act 1. Canzone. Sapete voi la storia?
3. Act 1. Scena. Fa paura
4. Act 1. Il Voto. O Gesù mio d'amor
5. Act 1. Scena. Ecco chi ci può dir la verità
6. Act 1. Canzone. Tutto è già pronto
7. Act 1. Scena. Edora da zio Tore
8. Act 1. Duetto. Questo fior voi lo gettaste a me?
9. Act 1. Finale 1. Bella, anzi bellissima
10. Act 2. Scena. Nunzia non viene
11. Act 2. Scena e Duetto. Madonna, non mi far impazzire
12. Act 2. Intermezzo
13. Act 2. Finale 2. Amalia, Amalia
14. Act 3. Canzone. Quattro! Sette!...
15. Act 3. Tarantella
16. Act 3. Canzone. La canzon, la canzon - Bravi
17. Act 3. Intermezzo e Duetto. Buona sera!
18. Act 3. Scena. O Vito, o Vito
19. Act 3. Finale. Lascia quei cenci...!
Исполнители:
Umberto Giordano - Mala Vita
Opera in 3 acts after Nigola Daspuro
Vito Amante - Maurizio Graziani
Cristina - Paola di Gregorio
Amalia - Maria Miccoli
Annetiello - Massimo Simeoli
Nunzia - Tiziana Portoghese
Marco - Antonio Rea
Coro Lirico Umberto Giordano
Emanuela Aymone, Choir Master
Orchestra Lirico Sinfonica della Capitanata
Angelo Cavallaro, Conductor

Лог создания рипа

Exact Audio Copy V1.0 beta 3 from 29. August 2011
EAC extraction logfile from 1. September 2014, 12:04
Giordano / Mala Vita, Cavallaro
Used drive : TSSTcorpCDDVDW SE-208AB Adapter: 1 ID: 0
Read mode : Secure
Utilize accurate stream : Yes
Defeat audio cache : Yes
Make use of C2 pointers : No
Read offset correction : 6
Overread into Lead-In and Lead-Out : No
Fill up missing offset samples with silence : Yes
Delete leading and trailing silent blocks : No
Null samples used in CRC calculations : Yes
Used interface : Native Win32 interface for Win NT & 2000
Used output format : Monkey's Audio Lossless Encoder
Selected bitrate : High Lossless Compression
Quality : High
Add ID3 tag : No
Command line compressor : C:\Program Files (x86)\Exact Audio Copy\MAC\MAC.exe
TOC of the extracted CD
Track | Start | Length | Start sector | End sector
---------------------------------------------------------
1 | 0:00.00 | 2:35.49 | 0 | 11673
2 | 2:35.49 | 2:07.68 | 11674 | 21266
3 | 4:43.42 | 3:19.18 | 21267 | 36209
4 | 8:02.60 | 4:59.62 | 36210 | 58696
5 | 13:02.47 | 2:12.04 | 58697 | 68600
6 | 15:14.51 | 1:14.05 | 68601 | 74155
7 | 16:28.56 | 2:19.63 | 74156 | 84643
8 | 18:48.44 | 8:31.05 | 84644 | 122973
9 | 27:19.49 | 3:02.62 | 122974 | 136685
10 | 30:22.36 | 5:29.10 | 136686 | 161370
11 | 35:51.46 | 9:24.66 | 161371 | 203736
12 | 45:16.37 | 3:49.74 | 203737 | 220985
13 | 49:06.36 | 6:36.69 | 220986 | 250754
14 | 55:43.30 | 2:36.63 | 250755 | 262517
15 | 58:20.18 | 2:27.06 | 262518 | 273548
16 | 60:47.24 | 2:12.65 | 273549 | 283513
17 | 63:00.14 | 4:42.57 | 283514 | 304720
18 | 67:42.71 | 2:02.32 | 304721 | 313902
19 | 69:45.28 | 4:24.69 | 313903 | 333771
Range status and errors
Selected range
Filename D:\EAC\Giordano - Mala Vita, Cavallaro.wav
Peak level 100.0 %
Extraction speed 5.0 X
Range quality 100.0 %
Test CRC 1A30E856
Copy CRC 1A30E856
Copy OK
No errors occurred
AccurateRip summary
Track 1 accurately ripped (confidence 2) [FD09974C] (AR v1)
Track 2 accurately ripped (confidence 2) [327C841B] (AR v1)
Track 3 accurately ripped (confidence 2) [5690409D] (AR v1)
Track 4 accurately ripped (confidence 2) [DB5E9939] (AR v1)
Track 5 accurately ripped (confidence 2) [438FF71D] (AR v1)
Track 6 accurately ripped (confidence 2) [AE940407] (AR v1)
Track 7 accurately ripped (confidence 2) [9E8448BA] (AR v1)
Track 8 accurately ripped (confidence 2) [4DEB85A7] (AR v1)
Track 9 accurately ripped (confidence 2) [EBD148DE] (AR v1)
Track 10 accurately ripped (confidence 2) [47FA7980] (AR v1)
Track 11 accurately ripped (confidence 2) [49B6864C] (AR v1)
Track 12 accurately ripped (confidence 2) [F6A5EDCA] (AR v1)
Track 13 accurately ripped (confidence 2) [614DD17E] (AR v1)
Track 14 accurately ripped (confidence 2) [D687D0D8] (AR v1)
Track 15 accurately ripped (confidence 2) [0DC1BE41] (AR v1)
Track 16 accurately ripped (confidence 2) [A2CE3106] (AR v1)
Track 17 accurately ripped (confidence 2) [A41CB787] (AR v1)
Track 18 accurately ripped (confidence 2) [CDE7596D] (AR v1)
Track 19 accurately ripped (confidence 2) [3D219E8F] (AR v1)
All tracks accurately ripped
End of status report
---- CUETools DB Plugin V2.1.3
[CTDB TOCID: 9INRF8CLud34m0NN58W8ha6vubY-] disk not present in database, Submit result: 9INRF8CLud34m0NN58W8ha6vubY- has been uploaded
==== Log checksum 1CC8E567EBF4D45544294AC46BE1CFA203B0904E04C4EC5C4603ED461A3D2DFE ====

Содержание индексной карты (.CUE)

REM GENRE Opera
REM DATE 2002
REM DISCID 1D116213
REM COMMENT "ExactAudioCopy v1.0b3"
PERFORMER "Giordano"
TITLE "Mala Vita, Cavallaro"
FILE "Giordano - Mala Vita, Cavallaro.ape" WAVE
TRACK 01 AUDIO
TITLE "Son grida! Sentite (Coro)"
PERFORMER "Giordano"
INDEX 01 00:00:00
TRACK 02 AUDIO
TITLE "Sapete voi la storia? (Marco, Coro)"
PERFORMER "Giordano"
INDEX 01 02:35:49
TRACK 03 AUDIO
TITLE "Fa paura (Marco, Vito, Coro)"
PERFORMER "Giordano"
INDEX 01 04:43:42
TRACK 04 AUDIO
TITLE "O Gesù mio d'amor (Vito, Coro)"
PERFORMER "Giordano"
INDEX 01 08:02:60
TRACK 05 AUDIO
TITLE "Ecco chi ci può di la verità (Annetiello)"
PERFORMER "Giordano"
INDEX 01 13:02:47
TRACK 06 AUDIO
TITLE "Tutto è già pronto (Annetiello, Coro)"
PERFORMER "Giordano"
INDEX 01 15:14:51
TRACK 07 AUDIO
TITLE "Ed ora da zio Tore (Annetiello)"
PERFORMER "Giordano"
INDEX 01 16:28:56
TRACK 08 AUDIO
TITLE "Questo fior voi lo gettaste a me?"
PERFORMER "Giordano"
INDEX 01 18:48:44
TRACK 09 AUDIO
TITLE "Bella, anzi bellissima (Annetiello)"
PERFORMER "Giordano"
INDEX 01 27:19:49
TRACK 10 AUDIO
TITLE "Nunzia non viene (Amalia e Nunzia)"
PERFORMER "Giordano"
INDEX 01 30:22:36
TRACK 11 AUDIO
TITLE "Madonna, non mi far impazzire (Amalia, Cristina)"
PERFORMER "Giordano"
INDEX 01 35:51:46
TRACK 12 AUDIO
TITLE "Intermezzo"
PERFORMER "Giordano"
INDEX 01 45:16:37
TRACK 13 AUDIO
TITLE "Amalia, Amalia (Vito, Amalia)"
PERFORMER "Giordano"
INDEX 01 49:06:36
TRACK 14 AUDIO
TITLE "Quattro! Sette!... Canzon d'amor (Vito, Coro)"
PERFORMER "Giordano"
INDEX 01 55:43:30
TRACK 15 AUDIO
TITLE "Tarantella"
PERFORMER "Giordano"
INDEX 01 58:20:18
TRACK 16 AUDIO
TITLE "La canzon, la canzon - Bravi (Annetiello, Coro)"
PERFORMER "Giordano"
INDEX 01 60:47:24
TRACK 17 AUDIO
TITLE "Buona sera! (Cristina, Vito)"
PERFORMER "Giordano"
INDEX 01 63:00:14
TRACK 18 AUDIO
TITLE "O Vito, o Vito (Cristina, Amalia, Vito)"
PERFORMER "Giordano"
INDEX 01 67:42:71
TRACK 19 AUDIO
TITLE "Lascia quei cenci...! (Cristina, Coro interno)"
PERFORMER "Giordano"
INDEX 01 69:45:28



Показать сообщения:    

Текущее время: 10-Дек 15:48

Часовой пояс: UTC + 3


Вы не можете начинать темы
Вы не можете отвечать на сообщения
Вы не можете редактировать свои сообщения
Вы не можете удалять свои сообщения
Вы не можете голосовать в опросах
Вы не можете прикреплять файлы к сообщениям
Вы не можете скачивать файлы