(Opera) D'Albert - Tiefland (Welitsch, Aldenhoff, Proebstl, Schech - Orchester Des Bayerischen Rundfunks, Albert) * Bonus: Alexander Welitsch (Beethoven-Wagner-Mussorgsky) - 2002, APE (image+.cue) lossless


 

[Цитировать]

Eugen D'Albert (1864-1932) - Tiefland
Жанр: Opera
Страна-производитель диска: Portugal
Год издания диска: 2002
Издатель (лейбл): Gala
Номер по каталогу: GL 100.715
Дата записи: 1949 - 1953
Аудиокодек: APE
Тип рипа: image+.cue
Битрейт аудио: lossless
Продолжительность: 72'52+74'09
Источник: собственный рип
Наличие сканов в содержимом раздачи: да
Треклист:

CD1

1. Vorspiel - Orchestervorspiel
2. Vorspiel - Zwei Vaterunser bet ich
3. Vorspiel - Wie ich nun gestern Abend in der Hütte liege
4. Vorspiel - Du glaubst am Ende, Weib und Glück sind eins?
5. Vorspiel - Ist Pedro nicht hier?
6. Vorspiel - Na, mein Pedro, sag mir mal, bist du hier zufrieden?
7. Vorspiel - Hast du's gehört? Ich krieg ein Weib
8. Vorspiel - Ich grüß noch einmal meine Berge
9. Vorspiel - Zwischenspiel
10. Akt 1 - Sag uns doch, ist es wahr?
11. Akt 1 - An einem Abend war's, der Mond ging auf
12. Akt 1 - Oh, sie ist fort!
13. Akt 1 - Sein bin ich, sein! Sein Eigentum!
14. Akt 1 - Er kommt! Wo kommt er, wo?
15. Akt 1 - Da ist er, seht nur!
16. Akt 1 - Da bin ich, Herr, da bin ich schon!
17. Akt 1 - Marta!
18. Akt 1 - Er will kein Stutzer sein
19. Akt 1 - Was suchst du noch, Moruccio?

CD2

1. Akt 1 - Das Fest ist vorbei
2. Akt 1 - Zum Reden zwing mich nich
3. Akt 2 - Die Sterne gingen zur Ruh, der Tag ist aufgewacht
4. Akt 2 - Da ist Marta. Nun will ich gehen
5. Akt 2 - Wo willst du hin?
6. Akt 2 - Ich weiß nicht, wer mein Vater war
7. Akt 2 - Du armes Kind!
8. Akt 2 - Ich will von Himmel Stärke dir erflehn
9. Akt 2 - Ei, so mürrisch, so Verdrießlich!
10. Akt 2 - Das Essen ist da!
11. Akt 2 - Ich sollt dich töten?
12. Akt 2 - Recht guten Tag! Was gibt es Neues?
13. Akt 2 - Hüll in die Mantille dich fester ein
14. Akt 2 - Nun hab ich nichts als dich mehr auf der Welt
15. Akt 2 - Da bin ich, und ich entreiss sie dir!
16. Akt 2 - He, Burschen, her! Ihr Weiber Kommt
Исполнители:
Eugen D'Albert (1864-1932) - Tiefland
Musikdrama in einem Vorspiel und zwei Aufzügen
Libretto: Rudolph Lothar Nach Angel Guimerá
Sebastiano, ein recher Grundbesitzer - Alexander Welitsch
Tommasso, der Alteste der Gemeinde - Max Proebstl
Marta, Magd und Geliebte Sebastianos - Marianne Schech
Pepa, Magd bei Sebastiano - Hanna Scholl
Antonia, Magd bei Sebastiano - Ruth Mischaelis
Rosalia, Magd bei Sebastiano - Lilian Benningsen
Nuri, Magd bei Sebastiano, Martas Freundin - Rosl Schwaiger
Moruccio, Muhlknecht in Diensten Sebastianos - Karl Hoppe
Pedro, Hirt in Diensten Sebastionos - Bernd Aldenhoff
Nando, Hirt in Diensten Sebastionos - Paul Kuen
Chor und Orchester des Bayerischen Rundfunks
Conductor: Rudolf Albert
Munchen, 1953
Bonus: Alexander Welitsch
17. Beethoven - Fidelio: Akt1 - Ha! Welch ein Augenblick!
NDR Sinfonieorchester, Hans Schmitt-Isserstedt 1949
18. Wagner - Die Meistersinger von Nürnberg: Akt2 - Fliedermonolog, Was duftet doch der Flieder
RIAS Sinfonieorchester, Leo Blech 1952
19. Mussorgsky - Boris Godunov: Akt2 - Die höchste Macht ist mein!
NWDR Sinfonieorchester, Hans Schmitt-Isserstedt 1949

Лог создания рипа

CD1

Exact Audio Copy V1.0 beta 3 from 29. August 2011
EAC extraction logfile from 10. November 2014, 16:59
D'Albert / Tiefland, Albert CD1
Used drive : TS8XDVDSTRANSCEND Adapter: 1 ID: 1
Read mode : Secure
Utilize accurate stream : Yes
Defeat audio cache : Yes
Make use of C2 pointers : No
Read offset correction : 6
Overread into Lead-In and Lead-Out : No
Fill up missing offset samples with silence : Yes
Delete leading and trailing silent blocks : No
Null samples used in CRC calculations : Yes
Used interface : Native Win32 interface for Win NT & 2000
Used output format : Monkey's Audio Lossless Encoder
Selected bitrate : High Lossless Compression
Quality : High
Add ID3 tag : Yes
Command line compressor : C:\Program Files (x86)\Exact Audio Copy\MAC\MAC.exe
TOC of the extracted CD
Track | Start | Length | Start sector | End sector
---------------------------------------------------------
1 | 0:00.00 | 5:58.32 | 0 | 26881
2 | 5:58.32 | 1:31.25 | 26882 | 33731
3 | 7:29.57 | 2:38.70 | 33732 | 45651
4 | 10:08.52 | 2:11.58 | 45652 | 55534
5 | 12:20.35 | 3:14.42 | 55535 | 70126
6 | 15:35.02 | 3:38.58 | 70127 | 86534
7 | 19:13.60 | 1:27.67 | 86535 | 93126
8 | 20:41.52 | 2:47.28 | 93127 | 105679
9 | 23:29.05 | 3:47.47 | 105680 | 122751
10 | 27:16.52 | 7:03.43 | 122752 | 154519
11 | 34:20.20 | 2:27.05 | 154520 | 165549
12 | 36:47.25 | 6:37.67 | 165550 | 195391
13 | 43:25.17 | 3:46.40 | 195392 | 212381
14 | 47:11.57 | 2:51.28 | 212382 | 225234
15 | 50:03.10 | 2:05.60 | 225235 | 234669
16 | 52:08.70 | 6:25.37 | 234670 | 263581
17 | 58:34.32 | 5:59.60 | 263582 | 290566
18 | 64:34.17 | 3:38.68 | 290567 | 306984
19 | 68:13.10 | 4:39.55 | 306985 | 327964
Range status and errors
Selected range
Filename D:\EAC\D'Albert - Tiefland, Albert CD1.wav
Peak level 50.7 %
Extraction speed 3.3 X
Range quality 100.0 %
Test CRC A3023931
Copy CRC A3023931
Copy OK
No errors occurred
AccurateRip summary
Track 1 accurately ripped (confidence 1) [93DD8621] (AR v2)
Track 2 accurately ripped (confidence 1) [3D9C7FD3] (AR v2)
Track 3 accurately ripped (confidence 1) [54B0CF50] (AR v2)
Track 4 accurately ripped (confidence 1) [4C8EEE76] (AR v2)
Track 5 accurately ripped (confidence 1) [0B5A8483] (AR v2)
Track 6 accurately ripped (confidence 1) [B44D04AA] (AR v2)
Track 7 accurately ripped (confidence 1) [C0CB2C60] (AR v2)
Track 8 accurately ripped (confidence 1) [E8F48DFD] (AR v2)
Track 9 accurately ripped (confidence 1) [C1570162] (AR v2)
Track 10 accurately ripped (confidence 1) [6EE0159B] (AR v2)
Track 11 accurately ripped (confidence 1) [301DA9AA] (AR v2)
Track 12 accurately ripped (confidence 1) [2C8A0E6C] (AR v2)
Track 13 accurately ripped (confidence 1) [931D445B] (AR v2)
Track 14 accurately ripped (confidence 1) [B51D007E] (AR v2)
Track 15 accurately ripped (confidence 1) [15BFBABA] (AR v2)
Track 16 accurately ripped (confidence 1) [14F8A48D] (AR v2)
Track 17 accurately ripped (confidence 1) [962F4DA2] (AR v2)
Track 18 accurately ripped (confidence 1) [FFF442CD] (AR v2)
Track 19 accurately ripped (confidence 1) [C57438B4] (AR v2)
All tracks accurately ripped
End of status report
---- CUETools DB Plugin V2.1.3
[CTDB TOCID: K0dks9NKC5KNxZFDP2zjbkv3wco-] found, Submit result: unrecognized or virtual drive
[a2f49e2e] (1/1) Accurately ripped
==== Log checksum 315A0C4C38ED504C3C6A538828D81DDFBCF28F554EBDD6248708E73312F6D9D5 ====

CD2

Exact Audio Copy V1.0 beta 3 from 29. August 2011
EAC extraction logfile from 10. November 2014, 17:48
D'Albert / Tiefland, Albert CD2
Used drive : TS8XDVDSTRANSCEND Adapter: 1 ID: 1
Read mode : Secure
Utilize accurate stream : Yes
Defeat audio cache : Yes
Make use of C2 pointers : No
Read offset correction : 6
Overread into Lead-In and Lead-Out : No
Fill up missing offset samples with silence : Yes
Delete leading and trailing silent blocks : No
Null samples used in CRC calculations : Yes
Used interface : Native Win32 interface for Win NT & 2000
Used output format : Monkey's Audio Lossless Encoder
Selected bitrate : High Lossless Compression
Quality : High
Add ID3 tag : Yes
Command line compressor : C:\Program Files (x86)\Exact Audio Copy\MAC\MAC.exe
TOC of the extracted CD
Track | Start | Length | Start sector | End sector
---------------------------------------------------------
1 | 0:00.00 | 9:03.07 | 0 | 40731
2 | 9:03.07 | 6:03.50 | 40732 | 68006
3 | 15:06.57 | 4:42.10 | 68007 | 89166
4 | 19:48.67 | 2:48.65 | 89167 | 101831
5 | 22:37.57 | 2:51.03 | 101832 | 114659
6 | 25:28.60 | 2:34.42 | 114660 | 126251
7 | 28:03.27 | 6:04.03 | 126252 | 153554
8 | 34:07.30 | 2:20.50 | 153555 | 164104
9 | 36:28.05 | 2:37.20 | 164105 | 175899
10 | 39:05.25 | 7:33.35 | 175900 | 209909
11 | 46:38.60 | 2:52.25 | 209910 | 222834
12 | 49:31.10 | 0:35.35 | 222835 | 225494
13 | 50:06.45 | 3:34.07 | 225495 | 241551
14 | 53:40.52 | 3:18.60 | 241552 | 256461
15 | 56:59.37 | 1:55.13 | 256462 | 265099
16 | 58:54.50 | 1:59.20 | 265100 | 274044
17 | 60:53.70 | 2:58.52 | 274045 | 287446
18 | 63:52.47 | 5:37.25 | 287447 | 312746
19 | 69:29.72 | 4:39.35 | 312747 | 333706
Range status and errors
Selected range
Filename D:\EAC\D'Albert - Tiefland, Albert CD2.wav
Peak level 47.8 %
Extraction speed 3.3 X
Range quality 99.9 %
Test CRC 34D09E1D
Copy CRC 34D09E1D
Copy OK
No errors occurred
AccurateRip summary
Track 1 accurately ripped (confidence 1) [F067DCDD] (AR v2)
Track 2 accurately ripped (confidence 1) [82149C0C] (AR v2)
Track 3 accurately ripped (confidence 1) [861E762F] (AR v2)
Track 4 accurately ripped (confidence 1) [968DBAD5] (AR v2)
Track 5 accurately ripped (confidence 1) [0D426F9E] (AR v2)
Track 6 accurately ripped (confidence 1) [F354EAC2] (AR v2)
Track 7 accurately ripped (confidence 1) [10BBE8C8] (AR v2)
Track 8 accurately ripped (confidence 1) [CF166C02] (AR v2)
Track 9 accurately ripped (confidence 1) [F9FD0183] (AR v2)
Track 10 accurately ripped (confidence 1) [2C9C3826] (AR v2)
Track 11 accurately ripped (confidence 1) [3C273589] (AR v2)
Track 12 accurately ripped (confidence 1) [F38E04AA] (AR v2)
Track 13 accurately ripped (confidence 1) [CC3FAA8E] (AR v2)
Track 14 accurately ripped (confidence 1) [7DEA8DB7] (AR v2)
Track 15 accurately ripped (confidence 1) [9BBBD45A] (AR v2)
Track 16 accurately ripped (confidence 1) [B3B30610] (AR v2)
Track 17 accurately ripped (confidence 1) [732535D6] (AR v2)
Track 18 accurately ripped (confidence 1) [A0FE702D] (AR v2)
Track 19 accurately ripped (confidence 1) [4CD07714] (AR v2)
All tracks accurately ripped
End of status report
---- CUETools DB Plugin V2.1.3
[CTDB TOCID: tMfSFEeI.G1q0D4g1T9T.V5CdP0-] found, Submit result: unrecognized or virtual drive
[b8a1623e] (1/1) Accurately ripped
==== Log checksum 41B8BEC0F6C34D27A75624412DAB9F754290780B928F2F54B2364B54BD70552B ====

Содержание индексной карты (.CUE)

CD1

REM GENRE Opera
REM DATE 1953
REM DISCID E9111413
REM COMMENT "ExactAudioCopy v1.0b3"
PERFORMER "D'Albert"
TITLE "Tiefland, Albert CD1"
FILE "D'Albert - Tiefland, Albert CD1.ape" WAVE
TRACK 01 AUDIO
TITLE "Vorspiel - Orchestervorspiel"
PERFORMER "D'Albert"
INDEX 01 00:00:00
TRACK 02 AUDIO
TITLE "Vorspiel - Zwei Vaterunser bet ich"
PERFORMER "D'Albert"
INDEX 01 05:58:32
TRACK 03 AUDIO
TITLE "Vorspiel - Wie ich nun gestern Abend in der Hütte liege"
PERFORMER "D'Albert"
INDEX 01 07:29:57
TRACK 04 AUDIO
TITLE "Vorspiel - Du glaubst am Ende, Weib und Glück sind eins?"
PERFORMER "D'Albert"
INDEX 01 10:08:52
TRACK 05 AUDIO
TITLE "Vorspiel - Ist Pedro nicht hier?"
PERFORMER "D'Albert"
INDEX 01 12:20:35
TRACK 06 AUDIO
TITLE "Vorspiel - Na, mein Pedro, sag mir mal, bist du hier zufrieden"
PERFORMER "D'Albert"
INDEX 01 15:35:02
TRACK 07 AUDIO
TITLE "Vorspiel - Hast du's gehört? Ich krieg ein Weib"
PERFORMER "D'Albert"
INDEX 01 19:13:60
TRACK 08 AUDIO
TITLE "Vorspiel - Ich grüß noch einmal meine Berge"
PERFORMER "D'Albert"
INDEX 01 20:41:52
TRACK 09 AUDIO
TITLE "Vorspiel - Zwischenspiel"
PERFORMER "D'Albert"
INDEX 01 23:29:05
TRACK 10 AUDIO
TITLE "Akt 1 - Sag uns doch, ist es wahr?"
PERFORMER "D'Albert"
INDEX 00 27:10:65
INDEX 01 27:16:52
TRACK 11 AUDIO
TITLE "Akt 1 - An einem Abend war's, der Mond ging auf"
PERFORMER "D'Albert"
INDEX 01 34:20:20
TRACK 12 AUDIO
TITLE "Akt 1 - Oh, sie ist fort!"
PERFORMER "D'Albert"
INDEX 01 36:47:25
TRACK 13 AUDIO
TITLE "Akt 1 - Sein bin ich, sein! Sein Eigentum!"
PERFORMER "D'Albert"
INDEX 01 43:25:17
TRACK 14 AUDIO
TITLE "Akt 1 - Er kommt! Wo kommt er, wo?"
PERFORMER "D'Albert"
INDEX 01 47:11:57
TRACK 15 AUDIO
TITLE "Akt 1 - Da ist er, seht nur!"
PERFORMER "D'Albert"
INDEX 01 50:03:10
TRACK 16 AUDIO
TITLE "Akt 1 - Da bin ich, Herr, da bin ich schon!"
PERFORMER "D'Albert"
INDEX 01 52:08:70
TRACK 17 AUDIO
TITLE "Akt 1 - Marta!"
PERFORMER "D'Albert"
INDEX 01 58:34:32
TRACK 18 AUDIO
TITLE "Akt 1 - Er will kein Stutzer sein"
PERFORMER "D'Albert"
INDEX 01 64:34:17
TRACK 19 AUDIO
TITLE "Akt 1 - Was suchst du noch, Moruccio?"
PERFORMER "D'Albert"
INDEX 01 68:13:10

CD2

REM GENRE Opera
REM DATE 1953
REM DISCID 07116113
REM COMMENT "ExactAudioCopy v1.0b3"
PERFORMER "D'Albert"
TITLE "Tiefland, Albert CD2"
FILE "D'Albert - Tiefland, Albert CD2.ape" WAVE
TRACK 01 AUDIO
TITLE "Akt 1 - Das Fest ist vorbei "
PERFORMER "D'Albert"
INDEX 01 00:00:00
TRACK 02 AUDIO
TITLE "Akt 1 - Zum Reden zwing mich nich"
PERFORMER "D'Albert"
INDEX 01 09:03:07
TRACK 03 AUDIO
TITLE "Akt 2 - Die Sterne gingen zur Ruh, der Tag ist aufgewacht"
PERFORMER "D'Albert"
INDEX 01 15:06:57
TRACK 04 AUDIO
TITLE "Akt 2 - Da ist Marta. Nun will ich gehen"
PERFORMER "D'Albert"
INDEX 01 19:48:67
TRACK 05 AUDIO
TITLE "Akt 2 - Wo willst du hin?"
PERFORMER "D'Albert"
INDEX 01 22:37:57
TRACK 06 AUDIO
TITLE "Akt 2 - Ich weiß nicht, wer mein Vater war"
PERFORMER "D'Albert"
INDEX 01 25:28:60
TRACK 07 AUDIO
TITLE "Akt 2 - Du armes Kind!"
PERFORMER "D'Albert"
INDEX 01 28:03:27
TRACK 08 AUDIO
TITLE "Akt 2 - Ich will von Himmel Stärke dir erflehn"
PERFORMER "D'Albert"
INDEX 01 34:07:30
TRACK 09 AUDIO
TITLE "Akt 2 - Ei, so mürrisch, so Verdrießlich!"
PERFORMER "D'Albert"
INDEX 01 36:28:05
TRACK 10 AUDIO
TITLE "Akt 2 - Das Essen ist da!"
PERFORMER "D'Albert"
INDEX 01 39:05:25
TRACK 11 AUDIO
TITLE "Akt 2 - Ich sollt dich töten?"
PERFORMER "D'Albert"
INDEX 01 46:38:60
TRACK 12 AUDIO
TITLE "Akt 2 - Recht guten Tag! Was gibt es Neues?"
PERFORMER "D'Albert"
INDEX 01 49:31:10
TRACK 13 AUDIO
TITLE "Akt 2 - Hüll in die Mantille dich fester ein"
PERFORMER "D'Albert"
INDEX 01 50:06:45
TRACK 14 AUDIO
TITLE "Akt 2 - Nun hab ich nichts als dich mehr auf der Welt"
PERFORMER "D'Albert"
INDEX 01 53:40:52
TRACK 15 AUDIO
TITLE "Akt 2 - Da bin ich, und ich entreiss sie dir!"
PERFORMER "D'Albert"
INDEX 01 56:59:37
TRACK 16 AUDIO
TITLE "Akt 2 - He, Burschen, her! Ihr Weiber Kommt"
PERFORMER "D'Albert"
INDEX 01 58:54:50
TRACK 17 AUDIO
TITLE "Beethoven - Fidelio: Akt1 - Ha! Welch ein Augenblick!"
PERFORMER "D'Albert"
INDEX 00 60:47:50
INDEX 01 60:53:70
TRACK 18 AUDIO
TITLE "Wagner - Die Meistersinger von Nürnberg: Akt2 - Fliedermonolog, Was duftet do..."
PERFORMER "D'Albert"
INDEX 00 63:47:22
INDEX 01 63:52:47
TRACK 19 AUDIO
TITLE "Mussorgsky - Boris Godunov: Akt2 - Die höchste Macht ist mein!"
PERFORMER "D'Albert"
INDEX 00 69:24:62
INDEX 01 69:29:72



Показать сообщения:    

Текущее время: 05-Дек 03:30

Часовой пояс: UTC + 3


Вы не можете начинать темы
Вы не можете отвечать на сообщения
Вы не можете редактировать свои сообщения
Вы не можете удалять свои сообщения
Вы не можете голосовать в опросах
Вы не можете прикреплять файлы к сообщениям
Вы не можете скачивать файлы