На всякого мудреца довольно простоты (Ринат Фазлеев) [2008 г., памфлет, WEB-DLRip] Новокузнецкий драматический театр


 

[Цитировать]

На всякого мудреца довольно простоты Название театра: Новокузнецкий драматический театр.
Год выпуска: 2008.
Жанр: памфлет.
Продолжительность: 02:19:46.
Режиссер: Ринат Фазлеев (г. Благовещенск).
Действующие лица и исполнители:
Егор Дмитрич Глумов, молодой человек - Сергей Стасюк,
Глафира Климовна Глумова, его мать - заслуженная артистка Бурятии Ирина Бабченко,
Нил Федосеич Мамаев, богатый барин, дальний родственник Глумова - Дмитрий Ромадин,
Клеопатра Львовна Мамаева, его жена - Елена Амосова,
Егор Васильич Кургаев, гусар - Олег Лучшев,
Иван Иванович Городулин, молодой, важный господин - Игорь Марганец,
Софья Игнатьевна Турусина, богатая вдова,барыня, родом из купчих - заслуженная артистка России Ирина Шантарь,
Машенька, ее племянница - Ольга Любицкая,
Манефа - Татьяна Калинина,
и др.
О спектакле:
Вообще-то, сам герой комедии Островского "На всякого мудреца довольно простоты" Глумов говорит так: "Записки подлеца, написанные им самим". Но именно под названием "Дневник мерзаца" в 1957 году в Нью-Йорке шла пьеса нашего русского Шекспира, поставленная театром "Финикс". Широко известно, что весь мир знает Чехова и Достоевского, но вот что бытописатель купеческого Замоскворечья известен за рубежом, для многих будет удивлением. В 1941 году эту пьесу показал театр "Юнити" в Магдебурге, в 1958 "Литл тиэтр групп" выступил с ней в Базеле, и в том же 58-м комедия Островского увидела свет в Дели, артисты играли на языке хинди. Это данные "Театральной энциклопедии", выпущенной в начале 60-х годов. Островского (конечно, и другие его комедии) ставят постоянно и повсеместно. И уж, разумеется, без него не обходится российская сцена. Георгий Товстоногов, к примеру, впервые взялся за "Мудреца" в студенческие годы и не однажды ставил ее на протяжении своей жизни, причем в разных странах мира прежде, чем в родном БДТ. Как писал известный критик Лордкипанидзе, "Тема оказалась слишком живучей, если иметь в виду ее общий смысл, а не бытовые реалии".
Дополнительная информация:
Страна: Россия .
Автор: Александр Николаевич Островский.
Художник: Роман Ватолкин (г. Новосибирск).

О спектакле.
Релиз
Рип sharky.

Качество видео:...WEB-DLRip
Формат:.................AVI
Видео:..704x528 (1.33:1), 25 fps, XviD build 50 ~2015 kbps avg, 0.22 bit/pixel
Аудио:..48 kHz, AC3 Dolby Digital, 2/0 (L,R) ch, ~192 kbps

Отчет MI

Общее
Полное имя : Na.vsyakogo.mudreca.dovol'no.prostoty_Novokuzneckij.DT.2008.XviD.WEB-DLRip.fenixclub.avi
Format : AVI
Format/Info : Audio Video Interleave
Format profile : OpenDML
File size : 2.16 GiB
Duration : 2h 19mn
Overall bit rate : 2 214 Kbps
Writing application : VirtualDubMod 1.5.10.3 | www.virtualdub-fr.org || (build 2550/release)
Writing library : VirtualDubMod build 2550/release
Video
ID : 0
Format : MPEG-4 Visual
Format profile : Advanced Simple@L5
Format settings, BVOP : 1
Format settings, QPel : No
Format settings, GMC : No warppoints
Format settings, Matrix : Default (H.263)
Codec ID : XVID
Codec ID/Hint : XviD
Duration : 2h 19mn
Bit rate : 2 010 Kbps
Width : 704 pixels
Height : 528 pixels
Display aspect ratio : 4:3
Frame rate : 25.000 fps
Color space : YUV
Chroma subsampling : 4:2:0
Bit depth : 8 bits
Scan type : Progressive
Compression mode : Lossy
Bits/(Pixel*Frame) : 0.216
Stream size : 1.96 GiB (91%)
Writing library : XviD 1.2.1 (UTC 2008-12-04)
Audio
ID : 1
Format : AC-3
Format/Info : Audio Coding 3
Mode extension : CM (complete main)
Format settings, Endianness : Big
Codec ID : 2000
Duration : 2h 19mn
Bit rate mode : Constant
Bit rate : 192 Kbps
Channel(s) : 2 channels
Channel positions : Front: L R
Sampling rate : 48.0 KHz
Bit depth : 16 bits
Compression mode : Lossy
Stream size : 192 MiB (9%)
Alignment : Split accross interleaves
Interleave, duration : 40 ms (1.00 video frame)
Interleave, preload duration : 500 ms.

Скриншоты


Альтернативный хост





Показать сообщения:    

Текущее время: 05-Дек 15:33

Часовой пояс: UTC + 3


Вы не можете начинать темы
Вы не можете отвечать на сообщения
Вы не можете редактировать свои сообщения
Вы не можете удалять свои сообщения
Вы не можете голосовать в опросах
Вы не можете прикреплять файлы к сообщениям
Вы не можете скачивать файлы