Смерть композитора. Чайковский (Ирина Мишина) [2009, документальный, биографический, DVB]


Статистика раздачи [Обновить пиров]
Размер:  935 MB   |    Зарегистрирован:  8 месяцев 16 дней   |    Скачан:  0 раз

Полного источника не было: Никогда

Личеров:  15  [  0 KB/s  ]   Подробная статистика пиров
 
   
 
 
 

[Цитировать]

Чайковский
Смерть композитора- Дата/Год выпуска: 2009
Страна: Россия
Жанр: документальный, биографический
Продолжительность: 00:45:35
Перевод: Не требуется
Русские субтитры: нет
Режиссер: Ирина Мишина
Телеканал: Кто есть ктоОписание: 6 ноября 1893 года скончался Петр Ильич Чайковский. Прошло уже больше 120 лет с этой даты, но обстоятельства и причины его кончины в возрасте 53 лет до сих пор не ясны. Тема Чайковского в российских СМИ во все времена была запретной. Причиной его смерти было принято считать заражение холерой. Однако, на этот счет бытовали и иные мнения. Впервые на российском телевидении расследование обстоятельств жизни и смерти композитора было предпринято в 2009 году тележурналистом, режиссером Ириной Мишиной в фильме "Смерть композитора".
Доп. информация: DVB-S

качество: DVB
формат: MKV
Видео: MPEG Video 2, 720x576@768x576 (4:3), 25 fps, ~2617 kbps avg, 0.263 bit/pixel
Аудио: MPEG Audio 2, 2 ch, 48 kHz, ~192.00 kbps avg

MediaInfo

Общее
Уникальный идентификатор : 250116307433599418830745853539108810580 (0xBC2AA60B14EA28158A723280AB846F54)
Полное имя : E:\My Torrents 2\[apreder]Composer's_Death_Tchaikovsky(2009)DVB.mkv
Формат : Matroska
Версия формата : Version 2
Размер файла : 935 Мбайт
Продолжительность : 45 м.
Режим общего битрейта : Переменный
Общий поток : 2866 Кбит/сек
Дата кодирования : UTC 2014-11-12 16:51:13
Программа кодирования : mkvmerge v7.3.0 ('Nouages') 64bit built on Oct 22 2014 18:53:34
Библиотека кодирования : libebml v1.3.0 + libmatroska v1.4.1
Видео
Идентификатор : 1
Формат : MPEG Video
Версия формата : Version 2
Профиль формата : Main@Main
Параметр BVOP формата : Нет
Параметр матрицы формата : Выборочная
Format_Settings_PictureStructure : Frame
Идентификатор кодека : V_MPEG2
Идентификатор кодека/Информация : MPEG 1 or 2 Video
Продолжительность : 45 м.
Вид битрейта : Переменный
Битрейт : 2617 Кбит/сек
Максимальный битрейт : 4668 Кбит/сек
Ширина : 720 пикселей
Высота : 576 пикселей
Соотношение сторон : 4:3
Режим частоты кадров : Постоянный
Частота кадров : 24,000 кадра/сек
Частота кадров в оригинале : 25,000 кадров/сек
Стандарт вещания : PAL
Цветовое пространство : YUV
Субдискретизация насыщенности : 4:2:0
Битовая глубина : 8 бит
Тип развёртки : Чересстрочная
Порядок развёртки : Верхнее поле первое
Метод сжатия : С потерями
Бит/(Пиксели*Кадры) : 0.263
Временной код первого кадра : 00:00:00:00
Оригинал временного кода : Group of pictures header
Размер потока : 853 Мбайт (91%)
Default : Да
Forced : Нет
Аудио
Идентификатор : 2
Формат : MPEG Audio
Версия формата : Version 1
Профиль формата : Layer 2
Идентификатор кодека : A_MPEG/L2
Идентификатор кодека/Подсказка : MP2
Продолжительность : 45 м.
Вид битрейта : Постоянный
Битрейт : 192 Кбит/сек
Каналы : 2 канала
Частота : 48,0 КГц
Метод сжатия : С потерями
Размер потока : 62,6 Мбайт (7%)
Язык : Russian
Default : Да
Forced : Нет

Скриншоты

Резервные скриншоты

-[1'908]
[teatrix.ru].t19448.torrent 
Торрент: Зарегистрирован [ 2016-03-18 12:46 ] · 1E99CAE7410B82AA412FA640F5608C794891EC33

Скачать .torrent

Скачать

19 KB

Статус: проверено
Скачан: 0 раз
Размер: 935 MB
terms.php



Быстрый ответ

Имя:

      
Для отправки сообщений необходимо включить JavaScript
Показать сообщения:    

Текущее время: 04-Дек 00:50

Часовой пояс: UTC + 3


Вы можете начинать темы
Вы можете отвечать на сообщения
Вы не можете редактировать свои сообщения
Вы не можете удалять свои сообщения
Вы не можете голосовать в опросах
Вы не можете прикреплять файлы к сообщениям
Вы можете скачивать файлы