(Classical, 20th century) Jorgen Jersild - Chamber Music - Ensemble MidtVest - 2013, FLAC (image+.cue) lossless


 

[Цитировать]

Jørgen Jersild - Chamber Music - Ensemble MidtVest
Жанр: Classical, 20th century
Страна-производитель диска: Denmark
Год издания диска: 2013
Издатель (лейбл): Dacapo
Номер по каталогу: 8.226072
Дата записи: 2013
Аудиокодек: FLAC
Тип рипа: image+.cue
Битрейт аудио: lossless
Продолжительность: 73:15
Источник: собственный рип
Наличие сканов в содержимом раздачи: да
Треклист:
Jørgen Jersild (1913-2004)
[1]-[4] Quartetto per archi (1980) *
[5]-[7] At spille i skoven (Music-Making in the Forest) (1947)
Serenade for flute, oboe, clarinet, bassoon and horn
[8]-[10] Trois pièces en concert (1945)
for piano
[11]-[13] Quartet (1934) *
for violin, viola, clarinet and bassoon
* World premiere recordings
Исполнители:
Ensemble MidtVest
Matthew Jones violin [1]-[4]
Karolina Weltrowska violin [1]-[4]
Ana Feitosa violin [11]-[13]
Sanna Ripatti viola
Jonathan Slaatto cello
Martin Qvist Hansen piano
Charlotte Norholt flute
Peter Kirstein oboe
Tommaso Lonquich clarinet
Neil Page horn
Yavor Petkov bassoon

Лог создания рипа

Exact Audio Copy V1.0 beta 3 from 29. August 2011
EAC extraction logfile from 2. August 2014, 11:20
Ensemble MidtVest / Jersild - Chamber Music
Used drive : HL-DT-STDVDRAM GU70N Adapter: 0 ID: 0
Read mode : Secure
Utilize accurate stream : Yes
Defeat audio cache : Yes
Make use of C2 pointers : No
Read offset correction : 48
Overread into Lead-In and Lead-Out : No
Fill up missing offset samples with silence : Yes
Delete leading and trailing silent blocks : No
Null samples used in CRC calculations : Yes
Used interface : Native Win32 interface for Win NT & 2000
Used output format : User Defined Encoder
Selected bitrate : 128 kBit/s
Quality : High
Add ID3 tag : No
Command line compressor : C:\Program Files (x86)\Exact Audio Copy\Flac\flac.exe
Additional command line options : -V -8 -T "Date=%year%" -T "Genre=%genre%" %source%
TOC of the extracted CD
Track | Start | Length | Start sector | End sector
---------------------------------------------------------
1 | 0:00.00 | 12:10.70 | 0 | 54819
2 | 12:10.70 | 2:54.71 | 54820 | 67940
3 | 15:05.66 | 8:36.69 | 67941 | 106709
4 | 23:42.60 | 7:31.58 | 106710 | 140592
5 | 31:14.43 | 5:18.25 | 140593 | 164467
6 | 36:32.68 | 5:35.47 | 164468 | 189639
7 | 42:08.40 | 3:39.62 | 189640 | 206126
8 | 45:48.27 | 3:04.43 | 206127 | 219969
9 | 48:52.70 | 8:31.04 | 219970 | 258298
10 | 57:23.74 | 3:48.06 | 258299 | 275404
11 | 61:12.05 | 4:01.35 | 275405 | 293514
12 | 65:13.40 | 4:02.13 | 293515 | 311677
13 | 69:15.53 | 3:59.60 | 311678 | 329662
Range status and errors
Selected range
Filename C:\temp\8.226072 - Jersild - Chamber Music\Jersild - Chamber Music.wav
Peak level 98.6 %
Extraction speed 2.3 X
Range quality 100.0 %
Test CRC 4107302B
Copy CRC 4107302B
Copy OK
No errors occurred
AccurateRip summary
Track 1 not present in database
Track 2 not present in database
Track 3 not present in database
Track 4 not present in database
Track 5 not present in database
Track 6 not present in database
Track 7 not present in database
Track 8 not present in database
Track 9 not present in database
Track 10 not present in database
Track 11 not present in database
Track 12 not present in database
Track 13 not present in database
None of the tracks are present in the AccurateRip database
End of status report
==== Log checksum 82D89C2A7A59997B171F8AB4BA8C37255A42A0A1D2E5DC0E5F55A50E616EB030 ====



Показать сообщения:    

Текущее время: 10-Дек 04:10

Часовой пояс: UTC + 3


Вы не можете начинать темы
Вы не можете отвечать на сообщения
Вы не можете редактировать свои сообщения
Вы не можете удалять свои сообщения
Вы не можете голосовать в опросах
Вы не можете прикреплять файлы к сообщениям
Вы не можете скачивать файлы