(Classical) Онсло – Струнные квинтеты № 11 и 30 / Onslow – String Quintets, Opp. 33 & 74 (Ensemble Concertant Frankfurt: Peter Agoston, Klaus Schwamm, Wolfgang Tluck, Sabine Krams, Timm-Johannes Trappe) - 2004, FLAC (image+.cue) lossless


 

[Цитировать]

Онсло – Струнные квинтеты № 11 и 30 / Onslow – String Quintets, Opp. 33 & 74 (Ensemble Concertant Frankfurt: Peter Agoston, Klaus Schwamm, Wolfgang Tluck, Sabine Krams, Timm-Johannes Trappe)
Жанр: Classical
Страна-производитель диска: Германия
Год издания диска: 2004
Издатель (лейбл): MDG scene
Номер по каталогу: MDG 603 1233-2
Дата записи: 26 — 28 мая 2003 г., Бамберг.
Аудиокодек: FLAC
Тип рипа: image+.cue
Битрейт аудио: lossless
Продолжительность: 00:59:16
Источник: odeonmusic
Наличие сканов в содержимом раздачи: да
Треклист:
Андре Жорж Луи Онсло (1784 — 1853).
Струнный квинтет № 30 e-moll, op. 74 (1847/1848).
01. I. Allegro grandioso [11:00].
02. II. Menuetto. Moderato molto [05:13].
03. III. Andantino grazioso. [На основе Andantino, № 1 из Шести пьес для фортепиано (опубл. после 1847)] [04:54].
04. IV. Finale. Allegro molto animato [06:01].
Струнный квинтет № 11 B-dur, op. 33 (1827/1828).
05. I. Allegro con brio [08:35].
06. II. Andante mestoso. — Fieramente. — [Tempo I] [08:27].
07. III. Minuetto. Non troppo presto. — Un poco lento. — Tempo I [06:15].
08. IV. Finale. Allegretto grazioso [08:12].
Исполнители:
Ensemble Concertant Frankfurt:
Peter Agoston (скрипка),
Klaus Schwamm (скрипка),
Wolfgang Tluck (альт),
Sabine Krams (виолончель),
Timm-Johannes Trappe (контрабас).

Лог создания рипа

Exact Audio Copy V1.0 beta 3 from 29. August 2011
EAC extraction logfile from 13. May 2014, 19:42
Ensemble Concertant Frankfurt / Onslow - String Quintets opp.33 & 74 - Ensemble Concertant Frankfurt
Used drive : TSSTcorpCDDVDW SH-222BB Adapter: 2 ID: 1
Read mode : Secure
Utilize accurate stream : Yes
Defeat audio cache : Yes
Make use of C2 pointers : No
Read offset correction : 6
Overread into Lead-In and Lead-Out : No
Fill up missing offset samples with silence : Yes
Delete leading and trailing silent blocks : No
Null samples used in CRC calculations : Yes
Used interface : Native Win32 interface for Win NT & 2000
Used output format : User Defined Encoder
Selected bitrate : 896 kBit/s
Quality : High
Add ID3 tag : No
Command line compressor : C:\Program Files\Exact Audio Copy\FLAC\FLAC.EXE
Additional command line options : -8 -V -T "TITLE=%title%" -T "ARTIST=%artist%" -T "ALBUMARTIST=%albumartist%" -T "ALBUM=%albumtitle%" -T "DATE=%year%" -T "TRACKNUMBER=%tracknr%" -T "TRACKTOTAL=%numtracks%" -T "GENRE=%genre%" -T "COMMENT=%comment%" -T "PERFORMER=%albuminterpret%" -T "COMPOSER=%composer%" %source% -o %dest%
TOC of the extracted CD
Track | Start | Length | Start sector | End sector
---------------------------------------------------------
1 | 0:00.00 | 11:05.15 | 0 | 49889
2 | 11:05.15 | 5:17.62 | 49890 | 73726
3 | 16:23.02 | 4:57.30 | 73727 | 96031
4 | 21:20.32 | 6:13.43 | 96032 | 124049
5 | 27:34.00 | 8:40.02 | 124050 | 163051
6 | 36:14.02 | 8:29.30 | 163052 | 201256
7 | 44:43.32 | 6:18.40 | 201257 | 229646
8 | 51:01.72 | 8:12.00 | 229647 | 266546
Range status and errors
Selected range
Filename E:\4000\[4114] Onslow – String Quintets opp.33 & 74 – Ensemble Concertant Frankfurt\Onslow - String Quintets opp.33 & 74 - Ensemble Concertant Frankfurt.wav
Peak level 92.5 %
Extraction speed 6.7 X
Range quality 100.0 %
Test CRC AF8AB75A
Copy CRC AF8AB75A
Copy OK
No errors occurred
AccurateRip summary
Track 1 accurately ripped (confidence 1) [7EFECC87] (AR v1)
Track 2 accurately ripped (confidence 1) [22F1A86F] (AR v1)
Track 3 accurately ripped (confidence 1) [B51C1D43] (AR v1)
Track 4 accurately ripped (confidence 1) [5DC709FC] (AR v1)
Track 5 accurately ripped (confidence 1) [3FD9BA61] (AR v1)
Track 6 accurately ripped (confidence 1) [F1D77B2D] (AR v1)
Track 7 accurately ripped (confidence 1) [2001D727] (AR v1)
Track 8 accurately ripped (confidence 1) [4A4448CD] (AR v1)
All tracks accurately ripped
End of status report
==== Log checksum BBFD629D3015AEDE0252306BEFBCC2794012854F0B0F22700D509151615E1C25 ====

Содержание индексной карты (.CUE)

REM GENRE Classical
REM DATE 2004
REM DISCID 7B0DE108
REM COMMENT "ExactAudioCopy v1.0b3"
PERFORMER "Ensemble Concertant Frankfurt"
TITLE "Onslow – String quintets, Opp. 33 & 74 – Ensemble Concertant Frankfurt"
FILE "Onslow – String quintets, Opp. 33 & 74 – Ensemble Concertant Frankfurt.flac" WAVE
TRACK 01 AUDIO
TITLE "String Quintet No. 30 in E minor, Op. 74 - I. Allegro grandioso"
PERFORMER "Ensemble Concertant Frankfurt"
ISRC DEA140423301
INDEX 01 00:00:00
TRACK 02 AUDIO
TITLE "String Quintet No. 30 in E minor, Op. 74 - II. Menuetto. Moderato molto"
PERFORMER "Ensemble Concertant Frankfurt"
ISRC DEA140423302
INDEX 00 11:00:40
INDEX 01 11:05:15
TRACK 03 AUDIO
TITLE "String Quintet No. 30 in E minor, Op. 74 - III. Andantino grazioso"
PERFORMER "Ensemble Concertant Frankfurt"
ISRC DEA140423303
INDEX 00 16:18:40
INDEX 01 16:23:02
TRACK 04 AUDIO
TITLE "String Quintet No. 30 in E minor, Op. 74 - IV. Finale. Allegro molto animato"
PERFORMER "Ensemble Concertant Frankfurt"
ISRC DEA140423304
INDEX 00 21:16:57
INDEX 01 21:20:32
TRACK 05 AUDIO
TITLE "String Quintet No. 11 in B flat major, Op. 33 - I. Allegro con brio"
PERFORMER "Ensemble Concertant Frankfurt"
ISRC DEA140423305
INDEX 00 27:21:65
INDEX 01 27:34:00
TRACK 06 AUDIO
TITLE "String Quintet No. 11 in B flat major, Op. 33 - II. Andante mestoso"
PERFORMER "Ensemble Concertant Frankfurt"
ISRC DEA140423306
INDEX 00 36:09:17
INDEX 01 36:14:02
TRACK 07 AUDIO
TITLE "String Quintet No. 11 in B flat major, Op. 33 - III. Minuetto. Non troppo presto"
PERFORMER "Ensemble Concertant Frankfurt"
ISRC DEA140423307
INDEX 00 44:41:22
INDEX 01 44:43:32
TRACK 08 AUDIO
TITLE "String Quintet No. 11 in B flat major, Op. 33 - IV. Finale. Allegretto grazioso"
PERFORMER "Ensemble Concertant Frankfurt"
ISRC DEA140423308
INDEX 00 50:58:47
INDEX 01 51:01:72



Показать сообщения:    

Текущее время: 09-Дек 22:18

Часовой пояс: UTC + 3


Вы не можете начинать темы
Вы не можете отвечать на сообщения
Вы не можете редактировать свои сообщения
Вы не можете удалять свои сообщения
Вы не можете голосовать в опросах
Вы не можете прикреплять файлы к сообщениям
Вы не можете скачивать файлы