(Classical) Виссарион Шебалин - Струнные Квартеты / Vissarion Shebalin - Complete String Quartets (Krasni Quartet) - 2000, FLAC (image+.cue) lossless


 

[Цитировать]

Shebalin - String Quartets Nos. 1-3; 4, 5 & 9; 6, 7 & 8 (Krasni Quartet)
Жанр: Classical
Год издания диска: 2000
Издатель (лейбл): Olympia
Дата записи:
Аудиокодек: FLAC
Тип рипа: image+.cue
Битрейт аудио: lossless
Продолжительность: 1999 - 2000
Источник: скачано из сети
Наличие сканов в содержимом раздачи: да
Исполнители:
Krasni String Quartet

Vol.1 - String Quartets Nos. 1-3; 79.11

Треклист:
String Quartet No. 1 in A Minor, Op.2
1. I. Allegro
2. II. Andante Tranquillo Con Espressione
3. III. Vivo
String Quartet No. 2 in B flat, Op.19
4. I. Largo - Allegro
5. II. Andantino - Vivo
6. III. Andante E Cantabile
7. IV. Allegro Risoluto
String Quartet No. 3 in e, Op.28
8. I. Allegro
9. II. Vivace
10. III. Andante
11. IV. Allegro Risoluto

LOG EAC

Exact Audio Copy V1.0 beta 3 from 29. August 2011
EAC extraction logfile from 5. September 2014, 1:03
Vissarion Shebalin / String Quartets Nos. 1-3 (Krasni Quartet)
Used drive : TSSTcorpCDDVDW SH-S223C Adapter: 0 ID: 1
Read mode : Secure
Utilize accurate stream : Yes
Defeat audio cache : Yes
Make use of C2 pointers : No
Read offset correction : 697
Overread into Lead-In and Lead-Out : No
Fill up missing offset samples with silence : Yes
Delete leading and trailing silent blocks : No
Null samples used in CRC calculations : Yes
Used interface : Native Win32 interface for Win NT & 2000
Used output format : User Defined Encoder
Selected bitrate : 1024 kBit/s
Quality : High
Add ID3 tag : No
Command line compressor : C:\Program Files (x86)\Exact Audio Copy\FLAC\FLAC.EXE
Additional command line options : -V -0 -T "COMMENT=Ripped by Tapaz9" -T "artist=%artist%" -T "title=%title%" -T "album=%albumtitle%" -T "date=%year%" -T "tracknumber=%tracknr%" -T "genre=%genre%" %source%
TOC of the extracted CD
Track | Start | Length | Start sector | End sector
---------------------------------------------------------
1 | 0:00.00 | 7:45.00 | 0 | 34874
2 | 7:45.00 | 7:42.00 | 34875 | 69524
3 | 15:27.00 | 6:19.00 | 69525 | 97949
4 | 21:46.00 | 8:38.00 | 97950 | 136799
5 | 30:24.00 | 7:15.00 | 136800 | 169424
6 | 37:39.00 | 6:14.00 | 169425 | 197474
7 | 43:53.00 | 8:02.00 | 197475 | 233624
8 | 51:55.00 | 5:55.00 | 233625 | 260249
9 | 57:50.00 | 2:45.00 | 260250 | 272624
10 | 60:35.00 | 6:46.00 | 272625 | 303074
11 | 67:21.00 | 11:48.00 | 303075 | 356174
Range status and errors
Selected range
Filename F:\Musique\Shebalin, Vissarion\Shebalin_StringQuartetsVol1\Vissarion Shebalin - String Quartets Nos. 1-3 (Krasni Quartet).wav
Peak level 98.9 %
Extraction speed 14.1 X
Range quality 100.0 %
Copy CRC 456485D9
Copy OK
No errors occurred
End of status report
==== Log checksum D58C20369D04FBD3DEE91EADE2590CBD349FBFFA6B4867D2B0078CA124260BDC ====

Vol.2 - String Quartets Nos. 4, 5, 9; 77.35

Треклист:
String Quartet No. 4 in g, Op.29
01. I. Allegro
02. II. Andante
03. III. Vivo (Alla marcia)
04. IV. Andante - Allegro
String Quartet No. 5 in f Slavonic', Op.33
05. I. Moderato
06. II. Andante
07. III. Allegretto, grazioso e leggiero
08. IV. Andante
09. V. Allegro energico
String Quartet No. 9 in b, Op.58
10. I. Largo - Allegro
11. II.Andante
12. III. Allegro molto

LOG EAC

Exact Audio Copy V1.0 beta 3 from 29. August 2011
EAC extraction logfile from 11. September 2014, 0:52
Vissarion Shebalin / String Quartets Nos.4, 5 & 9 (Krasni Quartet)
Used drive : TSSTcorpCDDVDW SH-S223C Adapter: 0 ID: 1
Read mode : Secure
Utilize accurate stream : Yes
Defeat audio cache : Yes
Make use of C2 pointers : No
Read offset correction : 697
Overread into Lead-In and Lead-Out : No
Fill up missing offset samples with silence : Yes
Delete leading and trailing silent blocks : No
Null samples used in CRC calculations : Yes
Used interface : Native Win32 interface for Win NT & 2000
Used output format : User Defined Encoder
Selected bitrate : 1024 kBit/s
Quality : High
Add ID3 tag : No
Command line compressor : C:\Program Files (x86)\Exact Audio Copy\FLAC\FLAC.EXE
Additional command line options : -V -0 -T "COMMENT=Ripped by Tapaz9/Johnston" -T "artist=%artist%" -T "title=%title%" -T "album=%albumtitle%" -T "date=%year%" -T "tracknumber=%tracknr%" -T "genre=%genre%" %source%
TOC of the extracted CD
Track | Start | Length | Start sector | End sector
---------------------------------------------------------
1 | 0:00.00 | 9:37.00 | 0 | 43274
2 | 9:37.00 | 6:14.00 | 43275 | 71324
3 | 15:51.00 | 4:47.00 | 71325 | 92849
4 | 20:38.00 | 10:42.00 | 92850 | 140999
5 | 31:20.00 | 5:31.38 | 141000 | 165862
6 | 36:51.38 | 4:46.00 | 165863 | 187312
7 | 41:37.38 | 3:27.37 | 187313 | 202874
8 | 45:05.00 | 4:05.00 | 202875 | 221249
9 | 49:10.00 | 8:14.00 | 221250 | 258299
10 | 57:24.00 | 9:05.00 | 258300 | 299174
11 | 66:29.00 | 4:15.00 | 299175 | 318299
12 | 70:44.00 | 6:55.00 | 318300 | 349424
Range status and errors
Selected range
Filename F:\Musique\Shebalin, Vissarion\Shebalin_StringQuartetsVol2\Vissarion Shebalin - String Quartets Nos.4, 5 & 9 (Krasni Quartet).wav
Peak level 98.9 %
Extraction speed 14.7 X
Range quality 99.9 %
Copy CRC E70CE5B6
Copy OK
No errors occurred
End of status report
==== Log checksum A96B2B4F737D999A55C87B57064AACA4FEDD0DFD63EBD4DFEE6AB32F9BF26C59 ====

Vol.3 - String Quartets Nos. 6-8; 67.46

Треклист:
String Quartet No. 6
01. I. Allegro
02. II. Andante
03. III. Vivo
04. IV. Allegro giusto
String Quartet No. 7
05. I. Allegro Moderato
06. II. Scherzo
07. III. Andante
08. IV. Allegro assai
String Quartet No. 8
09. String Quartet No. 8 - I. Andante
10. II. Allegro
11. III. Adagio
12. IV. Allegro

LOG EAC

Exact Audio Copy V1.0 beta 3 from 29. August 2011
EAC extraction logfile from 11. September 2014, 1:01
Vissarion Shebalin / String Quartets Nos. 6, 7 & 8 (Krasni Quartet)
Used drive : TSSTcorpCDDVDW SH-S223C Adapter: 0 ID: 1
Read mode : Secure
Utilize accurate stream : Yes
Defeat audio cache : Yes
Make use of C2 pointers : No
Read offset correction : 697
Overread into Lead-In and Lead-Out : No
Fill up missing offset samples with silence : Yes
Delete leading and trailing silent blocks : No
Null samples used in CRC calculations : Yes
Used interface : Native Win32 interface for Win NT & 2000
Used output format : User Defined Encoder
Selected bitrate : 1024 kBit/s
Quality : High
Add ID3 tag : No
Command line compressor : C:\Program Files (x86)\Exact Audio Copy\FLAC\FLAC.EXE
Additional command line options : -V -0 -T "COMMENT=Ripped by Tapaz9/Johnston" -T "artist=%artist%" -T "title=%title%" -T "album=%albumtitle%" -T "date=%year%" -T "tracknumber=%tracknr%" -T "genre=%genre%" %source%
TOC of the extracted CD
Track | Start | Length | Start sector | End sector
---------------------------------------------------------
1 | 0:00.00 | 7:32.47 | 0 | 33946
2 | 7:32.47 | 5:18.08 | 33947 | 57804
3 | 12:50.55 | 4:00.08 | 57805 | 75812
4 | 16:50.63 | 8:37.09 | 75813 | 114596
5 | 25:27.72 | 4:37.47 | 114597 | 135418
6 | 30:05.44 | 3:22.09 | 135419 | 150577
7 | 33:27.53 | 4:57.10 | 150578 | 172862
8 | 38:24.63 | 5:41.10 | 172863 | 198447
9 | 44:05.73 | 5:05.10 | 198448 | 221332
10 | 49:11.08 | 3:45.10 | 221333 | 238217
11 | 52:56.18 | 6:24.08 | 238218 | 267025
12 | 59:20.26 | 8:25.09 | 267026 | 304909
Range status and errors
Selected range
Filename F:\Musique\Shebalin, Vissarion\Shebalin_StringQuartetsVol3\Vissarion Shebalin - String Quartets Nos. 6, 7 & 8 (Krasni Quartet).wav
Peak level 92.7 %
Extraction speed 14.5 X
Range quality 100.0 %
Copy CRC 146F04BE
Copy OK
No errors occurred
End of status report
==== Log checksum 95FAB61089CDAE8054B6060B8E102324BBA32BE9E8D1BD4BAB5C461F883AC14C ====



Показать сообщения:    

Текущее время: 08-Дек 14:55

Часовой пояс: UTC + 3


Вы не можете начинать темы
Вы не можете отвечать на сообщения
Вы не можете редактировать свои сообщения
Вы не можете удалять свои сообщения
Вы не можете голосовать в опросах
Вы не можете прикреплять файлы к сообщениям
Вы не можете скачивать файлы