(Classical) Anton Bruckner - Symphony No. 7 in E Major (Paavo Jarvi) - 20th May 2013, FLAC (tracks+.cue) lossless


 

[Цитировать]

Anton Bruckner - Symphony No. 7 in E Major (Paavo Jarvi)
Жанр: Classical
Год издания диска: 20th May 2013
Издатель (лейбл): RCA
Номер по каталогу: 88697984452
Дата записи: 22-24/11/2006
Аудиокодек: FLAC
Тип рипа: tracks+.cue
Битрейт аудио: lossless
Продолжительность: 67:27
Источник: собственный рип
Наличие сканов в содержимом раздачи: нет
Треклист:
Symphony No. 7 in E major
1. Allegro moderato
2. Adagio. Sehr feierlich und sehr langsam
3. Scherzo, Sehr Schnell
4. Finale. Bewegt, doch nicht schnell
Исполнители:
Frankfurt Radio Symphony Orchestra
Conductor: Paavo Jarvi

Лог создания рипа

X Lossless Decoder version 20141109 (148.0)
XLD extraction logfile from 2014-11-12 19:54:46 +0500
Paavo Järvi: Frankfurt Radio Symphony Orchestra / Bruckner - Symphony No. 7 - Paavo Järvi
Used drive : ASUS SBW-06D2X-U (revision D501)
Media type : Pressed CD
Ripper mode : XLD Secure Ripper
Disable audio cache : OK for the drive with a cache less than 1375KiB
Make use of C2 pointers : NO
Read offset correction : 0
Max retry count : 20
Gap status : Analyzed, Appended (except HTOA)
TOC of the extracted CD
Track | Start | Length | Start sector | End sector
---------------------------------------------------------
1 | 00:00:00 | 21:59:02 | 0 | 98926
2 | 21:59:02 | 22:50:70 | 98927 | 201746
3 | 44:49:72 | 09:55:17 | 201747 | 246388
4 | 54:45:14 | 12:42:74 | 246389 | 303612
List of alternate offset correction values
# | Absolute | Relative | Confidence
------------------------------------------
1 | 103 | 103 | 33
2 | 115 | 115 | 3
AccurateRip Summary (DiscID: 000cfaf4-003274dd-2f0fd004)
Track 01 : OK (v1+v2, confidence 32/35, with different offset)
Track 02 : OK (v1+v2, confidence 32/35, with different offset)
Track 03 : OK (v1+v2, confidence 32/35, with different offset)
Track 04 : OK (v1+v2, confidence 33/36, with different offset)
->All tracks accurately ripped.
All Tracks
Statistics
Read error : 0
Jitter error (maybe fixed) : 0
Retry sector count : 0
Damaged sector count : 0
Track 01
Filename : /Volumes/Andy HD2/XLD/Bruckner - Symphony No. 7 - Paavo Jarvi/01.01 RSO Frankfurt-Paavo Järvi - I.Allegro moderato.flac
Pre-gap length : 00:02:00
CRC32 hash : 51F53773
CRC32 hash (skip zero) : 02CA396B
AccurateRip v1 signature : D4543A4F (F27E277E w/correction)
AccurateRip v2 signature : 0EB35DDE (DF12C2BA w/correction)
->Accurately ripped with different offset (v1+v2, confidence 14+18/35, offset +103)
Statistics
Read error : 0
Jitter error (maybe fixed) : 0
Retry sector count : 0
Damaged sector count : 0
Track 02
Filename : /Volumes/Andy HD2/XLD/Bruckner - Symphony No. 7 - Paavo Jarvi/01.02 RSO Frankfurt-Paavo Järvi - II.Adagio.flac
CRC32 hash : BEE8C913
CRC32 hash (skip zero) : 84CA1CBC
AccurateRip v1 signature : 88EEE760 (E48E3E0D w/correction)
AccurateRip v2 signature : 437D6C7C (5910EEBC w/correction)
->Accurately ripped with different offset (v1+v2, confidence 14+18/35, offset +103)
Statistics
Read error : 0
Jitter error (maybe fixed) : 0
Retry sector count : 0
Damaged sector count : 0
Track 03
Filename : /Volumes/Andy HD2/XLD/Bruckner - Symphony No. 7 - Paavo Jarvi/01.03 RSO Frankfurt-Paavo Järvi - III.Scherzo. Sehr schnell.flac
CRC32 hash : 49E1397D
CRC32 hash (skip zero) : 17824FF8
AccurateRip v1 signature : 174F59C4 (63903824 w/correction)
AccurateRip v2 signature : A1BDD359 (3E69F163 w/correction)
->Accurately ripped with different offset (v1+v2, confidence 14+18/35, offset +103)
Statistics
Read error : 0
Jitter error (maybe fixed) : 0
Retry sector count : 0
Damaged sector count : 0
Track 04
Filename : /Volumes/Andy HD2/XLD/Bruckner - Symphony No. 7 - Paavo Jarvi/01.04 RSO Frankfurt-Paavo Järvi - IV.Finale. Bewegt.flac
CRC32 hash : 2F3D3EEB
CRC32 hash (skip zero) : FB75ACAF
AccurateRip v1 signature : 2AE54214 (E5731F6E w/correction)
AccurateRip v2 signature : 1C2E14A0 (DA03F6B1 w/correction)
->Accurately ripped with different offset (v1+v2, confidence 14+19/36, offset +103)
Statistics
Read error : 0
Jitter error (maybe fixed) : 0
Retry sector count : 0
Damaged sector count : 0
No errors occurred
End of status report

Содержание индексной карты (.CUE)

TITLE "Bruckner - Symphony No. 7 - Paavo Järvi"
PERFORMER "Paavo Järvi: Frankfurt Radio Symphony Orchestra"
CATALOG 4988017659380
REM GENRE "Symphony"
REM DATE "2006"
REM DISCNUMBER 1
REM TOTALDISCS 1
REM DISCID 2F0FD004
FILE "01.01 RSO Frankfurt-Paavo Jarvi - I.Allegro moderato.flac" WAVE
TRACK 01 AUDIO
TITLE "I.Allegro moderato"
PERFORMER "RSO Frankfurt-Paavo Järvi"
SONGWRITER "Anton Bruckner"
ISRC JPBV00601015
INDEX 01 00:00:00
FILE "01.02 RSO Frankfurt-Paavo Jarvi - II.Adagio.flac" WAVE
TRACK 02 AUDIO
TITLE "II.Adagio"
PERFORMER "RSO Frankfurt-Paavo Järvi"
SONGWRITER "Anton Bruckner"
ISRC JPBV00601016
INDEX 01 00:00:00
FILE "01.03 RSO Frankfurt-Paavo Jarvi - III.Scherzo. Sehr schnell.flac" WAVE
TRACK 03 AUDIO
TITLE "III.Scherzo. Sehr schnell"
PERFORMER "RSO Frankfurt-Paavo Järvi"
SONGWRITER "Anton Bruckner"
ISRC JPBV00601017
INDEX 01 00:00:00
FILE "01.04 RSO Frankfurt-Paavo Jarvi - IV.Finale. Bewegt.flac" WAVE
TRACK 04 AUDIO
TITLE "IV.Finale. Bewegt"
PERFORMER "RSO Frankfurt-Paavo Järvi"
SONGWRITER "Anton Bruckner"
ISRC JPBV00601018
INDEX 01 00:00:00



Показать сообщения:    

Текущее время: 11-Дек 14:58

Часовой пояс: UTC + 3


Вы не можете начинать темы
Вы не можете отвечать на сообщения
Вы не можете редактировать свои сообщения
Вы не можете удалять свои сообщения
Вы не можете голосовать в опросах
Вы не можете прикреплять файлы к сообщениям
Вы не можете скачивать файлы