(Classical) [LP] [24/48] F. Schubert - Sonata №21, Impromtu (Мария Юдина (фортепиано) - Из Сокровищницы Мирового Исполнительского Искусства) - 1980, FLAC (image+.cue)


Статистика раздачи [Обновить пиров]
Размер:  237 MB   |    Зарегистрирован:  8 месяцев 22 дня   |    Скачан:  0 раз

Полного источника не было: Никогда

 
   
 
 
 

[Цитировать]

Ф.Шуберт
Мария Юдина (Фортепиано) - Из Сокровищницы Мирового Исполнительского Искусства

Жанр: Classical
Носитель: LP
Год выпуска: 1980
Лейбл: Melodya
Страна-производитель: USSR
Аудио кодек: FLAC
Тип рипа: image+.cue
Формат записи: 32/192
Формат раздачи: 24/48
Продолжительность: 48.29 min
Источник оцифровки: автором раздачи
Код класса состояния винила: Mint
Устройство воспроизведения: Электроника ЭП 017С
Головка звукоснимателя: Audio-Technica AT95
Предварительный усилитель: Бриг-001
АЦП: VIA HD audio device
Программа-оцифровщик: Izotope RX III Advanced
Обработка: Manual
Треклист:
Ф.Шуберт (1797-1828)
Соната №21
01. In B Flat Major, posthumous op, D.960
02. Andante sostenuto
03. Scherzo Allegro vivace con delicatezz
04. Allegro ma non froppo
05. Impromptu In A Flat Major, op. 142 №.2
Архивные записи
13 Августа 1947 г.(1)
15 Января 1956 г.(с концерта в Малом зале Московской консерватории)
Мария Юдина (фортепиано)

Спектр+АЧХ+Уровень записи


DR=13

foobar2000 1.1.10 / Dynamic Range Meter 1.1.1
log date: 2014-11-13 18:25:53
--------------------------------------------------------------------------------
Analyzed: Maria Yudina / Maria Yudina - Piano
--------------------------------------------------------------------------------
DR Peak RMS Duration Track
--------------------------------------------------------------------------------
DR15 -5.13 dB -25.95 dB 22:09 ?-In B Flat Major, posthumous op, D.960
DR14 -5.27 dB -26.48 dB 9:33 ?-Andante sostenuto
DR13 -4.66 dB -22.89 dB 3:24 ?-Scherzo Allegro vivace con delicatezz
DR10 -6.21 dB -22.19 dB 6:37 ?-Allegro ma non froppo
DR14 -6.31 dB -25.36 dB 6:45 ?-Impromptu In A Flat Major, op. 142 №.2
--------------------------------------------------------------------------------
Number of tracks: 5
Official DR value: DR13
Samplerate: 48000 Hz
Channels: 1
Bits per sample: 24
Bitrate: 645 kbps
Codec: FLAC
================================================================================

Back,Inner & Disc





[teatrix.ru].t19454.torrent 
Торрент: Зарегистрирован [ 2016-03-18 12:37 ] · 708349F5A46527F5967AB0A1A2A05438F4226B34

Скачать .torrent

Скачать

20 KB

Статус: проверено
Скачан: 0 раз
Размер: 237 MB
terms.php



Быстрый ответ

Имя:

      
Для отправки сообщений необходимо включить JavaScript
Показать сообщения:    

Текущее время: 09-Дек 20:30

Часовой пояс: UTC + 3


Вы можете начинать темы
Вы можете отвечать на сообщения
Вы не можете редактировать свои сообщения
Вы не можете удалять свои сообщения
Вы не можете голосовать в опросах
Вы не можете прикреплять файлы к сообщениям
Вы можете скачивать файлы