(Classical) [WEB] Сергей Прокофьев - Симфонии №№ 3, 7 (Bournemouth Symphony Orchestra, Кирилл Карабиц) - 2014, FLAC (tracks), lossless


 

[Цитировать]

Sergei Prokofiev - Symphonies Nos 3 & 7
Bournemouth Symphony Orchestra, Kirill Karabits
- Жанр: Classical
Год издания диска: 2014
Издатель (лейбл): PM Classics / Onyx
Номер по каталогу: ONY4137
Аудиокодек: FLAC
Тип рипа: tracks
Битрейт аудио: lossless
Продолжительность: 01:05:08
Наличие сканов: Covers, Digital Booklet- -
Сергей Прокофьев (1891 - 1953)
Symphonie No. 3 en Ut Mineur, Op. 44
01. I. Moderato (12:37)
02. II. Andante (6:57)
03. III. Allegro agitato - Allegretto (7:35)
04. IV. Andante mosso - Allegro moderato (6:30)
Symphonie No. 7 en Ut Dièse Mineur, Op. 131
05. I. Moderato (9:10)
06. II. Allegretto - Allegro (8:04)
07. III. Andante espressivo (5:16)
08. IV. Vivace - Moderato marcato (8:29)
09. Vivace (alternative ending) (0:30)-Исполнители:
Bournemouth Symphony Orchestra
Дирижёр - Кирилл Карабиц
Записано: The Lighthouse, Poole, Dorset, Июль 2013-

ОтчётыДинамический диапазон

foobar2000 1.2.2 / Замер динамического диапазона (DR) 1.1.1
Дата отчёта: 2014-11-14 00:56:39
--------------------------------------------------------------------------------
Анализ: Kirill Karabits; Bournemouth Symphony Orchestra / Prokofiev: Symphonies No. 3 & 7
--------------------------------------------------------------------------------
DR Пики RMS Продолжительность трека
--------------------------------------------------------------------------------
DR13 0.00 дБ -18.48 дБ 12:37 ?-Symphonie No. 3 en Ut Mineur, Op. 44 - I. Moderato
DR14 -9.71 дБ -28.60 дБ 6:57 ?-Symphonie No. 3 en Ut Mineur, Op. 44 - II. Andante
DR14 0.00 дБ -21.46 дБ 7:35 ?-Symphonie No. 3 en Ut Mineur, Op. 44 - III. Allegro agitato — Allegretto
DR12 0.00 дБ -16.52 дБ 6:30 ?-Symphonie No. 3 en Ut Mineur, Op. 44 - IV. Andante mosso — Allegro moderato
DR13 -2.41 дБ -22.71 дБ 9:10 ?-Symphonie No. 7 en Ut Dièse Mineur, Op. 131 - I. Moderato
DR17 0.00 дБ -22.01 дБ 8:04 ?-Symphonie No. 7 en Ut Dièse Mineur, Op. 131 - II. Allegretto – Allegro
DR14 -9.84 дБ -28.66 дБ 5:16 ?-Symphonie No. 7 en Ut Dièse Mineur, Op. 131 - III. Andante espressivo
DR13 -1.97 дБ -20.67 дБ 8:29 ?-Symphonie No. 7 en Ut Dièse Mineur, Op. 131 - IV. Vivace — Moderato marcato
DR5 -0.66 дБ -23.94 дБ 0:30 ?-Symphonie No. 7 en Ut Dièse Mineur, Op. 131 - Vivace (alternative ending)
--------------------------------------------------------------------------------
Количество треков: 9
Реальные значения DR: DR13
Частота: 44100 Гц
Каналов: 2
Разрядность: 16
Битрейт: 405 кбит/с
Кодек: FLAC
================================================================================

Лог проверки качества

-----------------------
DON'T MODIFY THIS FILE
-----------------------
PERFORMER: auCDtect Task Manager, ver. 1.6.0 RC1 build 1.6.0.1
Copyright (c) 2008-2010 y-soft. All rights reserved
http://y-soft.org
ANALYZER: auCDtect: CD records authenticity detector, version 0.8.2
Copyright (c) 2004 Oleg Berngardt. All rights reserved.
Copyright (c) 2004 Alexander Djourik. All rights reserved.
FILE: 09. Symphonie No. 7 en Ut Diese Mineur, Op. 131 - Vivace (alternative ending).flac
Size: 1626696 Hash: FD60A60C6D6D32C6FC10E138F38C0D9D Accuracy: -m0
Conclusion: CDDA 100%
Signature: 410315101A51FD0BC1D6990175EF106D8F6BF265
FILE: 08. Symphonie No. 7 en Ut Diese Mineur, Op. 131 - IV. Vivace — Moderato marcato.flac
Size: 41291763 Hash: AF36F058596480487D5D63C47D761E4C Accuracy: -m0
Conclusion: CDDA 99%
Signature: 9D73E054039381AC04F483A6EEC0A9E66B027EF3
FILE: 07. Symphonie No. 7 en Ut Diese Mineur, Op. 131 - III. Andante espressivo.flac
Size: 18887041 Hash: 9AF21A4B86C5C7C5A87DCF4DD9C08C65 Accuracy: -m0
Conclusion: CDDA 76%
Signature: F0B7994D0E231B3E58F9831FEEA500558CCB4174
FILE: 06. Symphonie No. 7 en Ut Diese Mineur, Op. 131 - II. Allegretto – Allegro.flac
Size: 35691554 Hash: 1F1343D5647ADCC49863A942CC001C46 Accuracy: -m0
Conclusion: CDDA 100%
Signature: F554CEE9708BBB4F8498B45A6D7A3553EA89B2E9
FILE: 05. Symphonie No. 7 en Ut Diese Mineur, Op. 131 - I. Moderato.flac
Size: 40397661 Hash: 71AD852472176F3FAA172952F6F410E5 Accuracy: -m0
Conclusion: CDDA 100%
Signature: CF0D7981038B7DB0CDC625FF3AC07E62C52A69D5
FILE: 04. Symphonie No. 3 en Ut Mineur, Op. 44 - IV. Andante mosso — Allegro moderato.flac
Size: 35392563 Hash: 4EAEBA9013EFB67C86A361867BF2D909 Accuracy: -m0
Conclusion: CDDA 100%
Signature: 6232FA05A0AB510CEC262153F825D9E8F124CFE8
FILE: 03. Symphonie No. 3 en Ut Mineur, Op. 44 - III. Allegro agitato — Allegretto.flac
Size: 35256287 Hash: 0EEAA7B645A04541C50F70C5AD643347 Accuracy: -m0
Conclusion: CDDA 100%
Signature: EE709CA660282B4313EDCD04513AA0A35F7F5BC1
FILE: 02. Symphonie No. 3 en Ut Mineur, Op. 44 - II. Andante.flac
Size: 27854663 Hash: A0EA5956385C04999ACC15D4CA7DF0F2 Accuracy: -m0
Conclusion: CDDA 94%
Signature: 9320BE40F02021738AF5AC443DAD5C42020D6D36
FILE: 01. Symphonie No. 3 en Ut Mineur, Op. 44 - I. Moderato.flac
Size: 63107116 Hash: E0CC3284BD3CF770D9824FEC81C1284F Accuracy: -m0
Conclusion: CDDA 100%
Signature: EECDD9A4BDB1DE7E1F96E5C2C49CD33109A4B163

Скриншот спектра частот

Доп. информация

Релиз полностью готов к воспроизведению в аудиоплеере (я ориентировался на foobar2000)При скачивании, если необходимо, переименуйте папку, в которой будет находиться альбомБольшая просьба к скачавшим поддерживать раздачу! Помогайте другим, ведь вам тоже может понадобиться помощь!Не забываем говорить "Спасибо"!Комментарии приветствуются!



Показать сообщения:    

Текущее время: 08-Дек 17:20

Часовой пояс: UTC + 3


Вы не можете начинать темы
Вы не можете отвечать на сообщения
Вы не можете редактировать свои сообщения
Вы не можете удалять свои сообщения
Вы не можете голосовать в опросах
Вы не можете прикреплять файлы к сообщениям
Вы не можете скачивать файлы