(Classical) Rameau - The Sound of Light /Les Fetes d'Hebe/Zoroaster/Les Boreades/Les Indes galantes/Platee/Six Concerts transcrits en Sextuor/Nais(Надежда Кучер, Алексей Светов, Теодор Куррентзис/Teodor Currentzis) - 2014, FLAC (tracks+.cue) lossless


 

[Цитировать]

Rameau - The Sound of Light /Les Fêtes d'Hébé/Zoroaster/Les Boréades/Les Indes galantes/Platée/Six Concerts transcrits en Sextuor/Nais/Hippolyte et Aricie/Dardanus/Castor et Pollux (Надежда Кучер, Алексей Светов, Теодор Куррентзис/Teodor Currentzis) - 20 Oct 2014
Жанр: Classical
Год издания диска: 20 Oct 2014
Издатель (лейбл): Sony Music Classical
Номер по каталогу: 88843082572
Дата записи: 8-12 June 2012
Аудиокодек: FLAC
Тип рипа: tracks+.cue
Битрейт аудио: lossless
Источник: собственный рип
Треклист:
1. Les Fêtes d'Hébé, La Danse, Scène VII: Musette et Tambourin en rondeau pour Terpsichore
2. Zoroaster, Acte III, Scène VII: Gavotte en rondeau
3. Les Boréades, Acte IV, Scène IV: Entrée pour les Muses, les Zéphyres, les Saisons, les Heures et les Arts
4. Les Indes galantes, Nouvelle entrée, Les sauvages, Scène VI: Chaconne
5. Les Indes galantes, Troisième entrée, Les fleurs, Scène VIII: Ballet des fleurs - Orage
6. Zoroastre, Act I, Scène III: Air tendre en rendeau
7. Platée, Acte I, Scène VI: Orage
8. Les Indes galantes, Nouvelle entrée, Les sauvages, Scène VI: Rondeau - Duo et choeur "Forêts paisibles"
9. Six Concerts transcrits en Sextuor, Sixième concert: La poule
10. Platée, Acte II, Scène IV: Récitativ "Essayons du brillant" - Ariette "Aux langueurs d'Apollon"
11. Nais, Prologue, Scène V: Premier rigaudon - Deuxième rigaudon
12. Zoroastre: Ouverture
13. Hippolyte et Aricie, Acte I, Scène I: Prélude - Air accompagné "Temple sacré, séjour tranquille"
14. Nais: Ouverture
15. Les Boréades, Acte I, Scène IV: Première contredanse en rondeau pour les Peuples boréades travestis en Plaisirs et Grâces - Deuxième contredanse en rondeau pour les Peuples boréades travestis en Plaisirs et Grâces
16. Les Indes galantes, Première entrée, Le turc généreux, Scène VI: Air pour les esclaves africains
17. Dardanus, Prologue, Scène II: Premier tambourin pour les Peuples de différentes nations - Deuxième tambourin pour les Peuples de différentes nations
18. Castor et Pollux, Acte I, Scène III: Prélude - Air accompagné "Tristes apprêts"
Исполнители:
Надежда Кучер/Nadine Koutcher (soprano)
Алексей Светов/Alexei Svetov (bass)
MusicAeterna Orchestra & Choir
Теодор Куррентзис/Teodor Currentzis

Лог создания рипа

X Lossless Decoder version 20141109 (148.0)
XLD extraction logfile from 2014-11-14 20:49:12 +0500
Teodor Currentzis / Rameau - The Sound of Light
Used drive : ASUS SBW-06D2X-U (revision D501)
Media type : Pressed CD
Ripper mode : XLD Secure Ripper
Disable audio cache : OK for the drive with a cache less than 1375KiB
Make use of C2 pointers : NO
Read offset correction : 103
Max retry count : 20
Gap status : Analyzed, Appended (except HTOA)
TOC of the extracted CD
Track | Start | Length | Start sector | End sector
---------------------------------------------------------
1 | 00:00:00 | 03:47:55 | 0 | 17079
2 | 03:47:55 | 02:18:07 | 17080 | 27436
3 | 06:05:62 | 07:02:65 | 27437 | 59151
4 | 13:08:52 | 05:45:35 | 59152 | 85061
5 | 18:54:12 | 00:47:48 | 85062 | 88634
6 | 19:41:60 | 02:23:70 | 88635 | 99429
7 | 22:05:55 | 01:53:07 | 99430 | 107911
8 | 23:58:62 | 03:45:16 | 107912 | 124802
9 | 27:44:03 | 05:56:42 | 124803 | 151544
10 | 33:40:45 | 05:16:35 | 151545 | 175279
11 | 38:57:05 | 02:17:11 | 175280 | 185565
12 | 41:14:16 | 04:21:74 | 185566 | 205214
13 | 45:36:15 | 02:48:19 | 205215 | 217833
14 | 48:24:34 | 03:58:25 | 217834 | 235708
15 | 52:22:59 | 02:31:58 | 235709 | 247091
16 | 54:54:42 | 01:49:18 | 247092 | 255284
17 | 56:43:60 | 02:21:63 | 255285 | 265922
18 | 59:05:48 | 07:33:15 | 265923 | 299912
AccurateRip Summary (DiscID: 002b7869-023f2be7-fe0f9e12)
Track 01 : OK (v2, confidence 1/1)
Track 02 : OK (v2, confidence 1/1)
Track 03 : OK (v2, confidence 1/1)
Track 04 : OK (v2, confidence 1/1)
Track 05 : OK (v2, confidence 1/1)
Track 06 : OK (v2, confidence 1/1)
Track 07 : OK (v2, confidence 1/1)
Track 08 : OK (v2, confidence 1/1)
Track 09 : OK (v2, confidence 1/1)
Track 10 : OK (v2, confidence 1/1)
Track 11 : OK (v2, confidence 1/1)
Track 12 : OK (v2, confidence 1/1)
Track 13 : OK (v2, confidence 1/1)
Track 14 : OK (v2, confidence 1/1)
Track 15 : OK (v2, confidence 1/1)
Track 16 : OK (v2, confidence 1/1)
Track 17 : OK (v2, confidence 1/1)
Track 18 : OK (v2, confidence 1/1)
->All tracks accurately ripped.
All Tracks
Statistics
Read error : 0
Jitter error (maybe fixed) : 0
Retry sector count : 0
Damaged sector count : 0
Track 01
Filename : /Volumes/Andy HD2/XLD/Rameau - The Sound of Light (Teodor Currentzis)/01.01 Teodor Currentzis - Les Fetes d'Hebe, La Danse, Scene VII. Musette et Tambourin en rondeau pour Terpsichore.flac
Pre-gap length : 00:02:00
CRC32 hash : 7392207E
CRC32 hash (skip zero) : C2520B69
AccurateRip v1 signature : CF05BFD7
AccurateRip v2 signature : 43A4FF32
->Accurately ripped (v2, confidence 1/1)
Statistics
Read error : 0
Jitter error (maybe fixed) : 0
Retry sector count : 0
Damaged sector count : 0
Track 02
Filename : /Volumes/Andy HD2/XLD/Rameau - The Sound of Light (Teodor Currentzis)/01.02 Teodor Currentzis - Zoroastre, Acte III, Scene VII. Gavotte en rondeau.flac
Pre-gap length : 00:01:16
CRC32 hash : 254352CA
CRC32 hash (skip zero) : 9F3D7D4B
AccurateRip v1 signature : 63A914E9
AccurateRip v2 signature : AD4D4606
->Accurately ripped (v2, confidence 1/1)
Statistics
Read error : 0
Jitter error (maybe fixed) : 0
Retry sector count : 0
Damaged sector count : 0
Track 03
Filename : /Volumes/Andy HD2/XLD/Rameau - The Sound of Light (Teodor Currentzis)/01.03 Teodor Currentzis - Les Boreades, Acte IV, Scene IV. Entree pour les Muses, les Zephyres, les Saisons, les Heures et les Arts.flac
Pre-gap length : 00:04:25
CRC32 hash : D788BE6E
CRC32 hash (skip zero) : 6FE66B64
AccurateRip v1 signature : 3E96ACB0
AccurateRip v2 signature : 85B956E3
->Accurately ripped (v2, confidence 1/1)
Statistics
Read error : 0
Jitter error (maybe fixed) : 0
Retry sector count : 0
Damaged sector count : 0
Track 04
Filename : /Volumes/Andy HD2/XLD/Rameau - The Sound of Light (Teodor Currentzis)/01.04 Teodor Currentzis - Les Indes galantes, Nouvelle entree, Les sauvages, Scene VI. Chaconne.flac
Pre-gap length : 00:01:12
CRC32 hash : EC2F47BA
CRC32 hash (skip zero) : 5E56978A
AccurateRip v1 signature : 08988EB1
AccurateRip v2 signature : 61A761D1
->Accurately ripped (v2, confidence 1/1)
Statistics
Read error : 0
Jitter error (maybe fixed) : 0
Retry sector count : 0
Damaged sector count : 0
Track 05
Filename : /Volumes/Andy HD2/XLD/Rameau - The Sound of Light (Teodor Currentzis)/01.05 Teodor Currentzis - Les Indes galantes, Troisieme entree, Les fleurs, Scene VIII. Ballet des fleurs - Orage.flac
CRC32 hash : BD49DA03
CRC32 hash (skip zero) : E7A54976
AccurateRip v1 signature : E5D2C42F
AccurateRip v2 signature : EA8C9E2C
->Accurately ripped (v2, confidence 1/1)
Statistics
Read error : 0
Jitter error (maybe fixed) : 0
Retry sector count : 0
Damaged sector count : 0
Track 06
Filename : /Volumes/Andy HD2/XLD/Rameau - The Sound of Light (Teodor Currentzis)/01.06 Teodor Currentzis - Zoroastre, Act I, Scene III. Air tendre en rendeau.flac
Pre-gap length : 00:03:04
CRC32 hash : B1639C78
CRC32 hash (skip zero) : 7079F4A1
AccurateRip v1 signature : 84A21FC9
AccurateRip v2 signature : 856F5B75
->Accurately ripped (v2, confidence 1/1)
Statistics
Read error : 0
Jitter error (maybe fixed) : 0
Retry sector count : 0
Damaged sector count : 0
Track 07
Filename : /Volumes/Andy HD2/XLD/Rameau - The Sound of Light (Teodor Currentzis)/01.07 Teodor Currentzis - Platee, Acte I, Scene VI. Orage.flac
Pre-gap length : 00:01:29
CRC32 hash : 9EB3EA60
CRC32 hash (skip zero) : EBA6240E
AccurateRip v1 signature : A99BDB1A
AccurateRip v2 signature : 9FF72177
->Accurately ripped (v2, confidence 1/1)
Statistics
Read error : 0
Jitter error (maybe fixed) : 0
Retry sector count : 0
Damaged sector count : 0
Track 08
Filename : /Volumes/Andy HD2/XLD/Rameau - The Sound of Light (Teodor Currentzis)/01.08 Teodor Currentzis - Les Indes galantes, Nouvelle entree, Les sauvages, Scene VI. Rondeau - Duo et choeur "Forets paisibles".flac
Pre-gap length : 00:01:47
CRC32 hash : D727CC2D
CRC32 hash (skip zero) : CC755A32
AccurateRip v1 signature : 05051D32
AccurateRip v2 signature : 98034456
->Accurately ripped (v2, confidence 1/1)
Statistics
Read error : 0
Jitter error (maybe fixed) : 0
Retry sector count : 0
Damaged sector count : 0
Track 09
Filename : /Volumes/Andy HD2/XLD/Rameau - The Sound of Light (Teodor Currentzis)/01.09 Teodor Currentzis - Six Concerts transcrits en Sextuor, Sixieme concert. La poule.flac
Pre-gap length : 00:04:19
CRC32 hash : 512D935B
CRC32 hash (skip zero) : 8FEAB112
AccurateRip v1 signature : 0D848CFE
AccurateRip v2 signature : B97CACF9
->Accurately ripped (v2, confidence 1/1)
Statistics
Read error : 0
Jitter error (maybe fixed) : 0
Retry sector count : 0
Damaged sector count : 0
Track 10
Filename : /Volumes/Andy HD2/XLD/Rameau - The Sound of Light (Teodor Currentzis)/01.10 Teodor Currentzis - Platee, Acte II, Scene IV. Recitativ "Essayons du brillant" - Ariette "Aux langueurs d'Apollon".flac
CRC32 hash : 013E0954
CRC32 hash (skip zero) : 12DB5AB6
AccurateRip v1 signature : A584E841
AccurateRip v2 signature : 7BB85C01
->Accurately ripped (v2, confidence 1/1)
Statistics
Read error : 0
Jitter error (maybe fixed) : 0
Retry sector count : 0
Damaged sector count : 0
Track 11
Filename : /Volumes/Andy HD2/XLD/Rameau - The Sound of Light (Teodor Currentzis)/01.11 Teodor Currentzis - Nais, Prologue, Scene V. Premier rigaudon - Deuxieme rigaudon.flac
Pre-gap length : 00:03:12
CRC32 hash : F99EBE87
CRC32 hash (skip zero) : FB8CA000
AccurateRip v1 signature : A84DA0CC
AccurateRip v2 signature : F08467A0
->Accurately ripped (v2, confidence 1/1)
Statistics
Read error : 0
Jitter error (maybe fixed) : 0
Retry sector count : 0
Damaged sector count : 0
Track 12
Filename : /Volumes/Andy HD2/XLD/Rameau - The Sound of Light (Teodor Currentzis)/01.12 Teodor Currentzis - Zoroastre. Ouverture.flac
Pre-gap length : 00:02:10
CRC32 hash : 33C373DF
CRC32 hash (skip zero) : D6E03383
AccurateRip v1 signature : A87E9781
AccurateRip v2 signature : A15DEC68
->Accurately ripped (v2, confidence 1/1)
Statistics
Read error : 0
Jitter error (maybe fixed) : 0
Retry sector count : 0
Damaged sector count : 0
Track 13
Filename : /Volumes/Andy HD2/XLD/Rameau - The Sound of Light (Teodor Currentzis)/01.13 Teodor Currentzis - Hippolyte et Aricie, Acte I, Scene I. Prelude - Air accompagne "Temple sacre, sejour tranquille".flac
Pre-gap length : 00:02:30
CRC32 hash : 5C766E95
CRC32 hash (skip zero) : 92C1560C
AccurateRip v1 signature : ABCFED18
AccurateRip v2 signature : 1ED8336C
->Accurately ripped (v2, confidence 1/1)
Statistics
Read error : 0
Jitter error (maybe fixed) : 0
Retry sector count : 0
Damaged sector count : 0
Track 14
Filename : /Volumes/Andy HD2/XLD/Rameau - The Sound of Light (Teodor Currentzis)/01.14 Teodor Currentzis - Nais. Ouverture.flac
Pre-gap length : 00:03:04
CRC32 hash : 732C4950
CRC32 hash (skip zero) : 6349995B
AccurateRip v1 signature : F319C7A6
AccurateRip v2 signature : 1F66566E
->Accurately ripped (v2, confidence 1/1)
Statistics
Read error : 0
Jitter error (maybe fixed) : 0
Retry sector count : 0
Damaged sector count : 0
Track 15
Filename : /Volumes/Andy HD2/XLD/Rameau - The Sound of Light (Teodor Currentzis)/01.15 Teodor Currentzis - Les Boreades, Acte I, Scene IV. Premiere contredanse en rondeau pour les Peuples boreades travestis en Plaisirs et Grâces - Deuxieme contredanse en rondeau pour les Peuples boreades travestis en Plaisirs et Grâces.flac
Pre-gap length : 00:03:15
CRC32 hash : 0940EC99
CRC32 hash (skip zero) : B006657D
AccurateRip v1 signature : BDF051F3
AccurateRip v2 signature : 718469BB
->Accurately ripped (v2, confidence 1/1)
Statistics
Read error : 0
Jitter error (maybe fixed) : 0
Retry sector count : 0
Damaged sector count : 0
Track 16
Filename : /Volumes/Andy HD2/XLD/Rameau - The Sound of Light (Teodor Currentzis)/01.16 Teodor Currentzis - Les Indes galantes, Premiere entree, Le turc genereux, Scene VI. Air pour les esclaves africains.flac
CRC32 hash : 0170FD7D
CRC32 hash (skip zero) : DED1DEFF
AccurateRip v1 signature : 6282A668
AccurateRip v2 signature : 86D6A734
->Accurately ripped (v2, confidence 1/1)
Statistics
Read error : 0
Jitter error (maybe fixed) : 0
Retry sector count : 0
Damaged sector count : 0
Track 17
Filename : /Volumes/Andy HD2/XLD/Rameau - The Sound of Light (Teodor Currentzis)/01.17 Teodor Currentzis - Dardanus, Prologue, Scene II. Premier tambourin pour les Peuples de differentes nations - Deuxieme tambourin pour les Peuples de differentes nations.flac
Pre-gap length : 00:01:65
CRC32 hash : B1FCA12B
CRC32 hash (skip zero) : 8F4564F6
AccurateRip v1 signature : A727F1C0
AccurateRip v2 signature : FCB5BAF8
->Accurately ripped (v2, confidence 1/1)
Statistics
Read error : 0
Jitter error (maybe fixed) : 0
Retry sector count : 0
Damaged sector count : 0
Track 18
Filename : /Volumes/Andy HD2/XLD/Rameau - The Sound of Light (Teodor Currentzis)/01.18 Teodor Currentzis - Castor et Pollux, Acte I, Scene III. Prelude - Air accompagne "Tristes apprets".flac
Pre-gap length : 00:05:26
CRC32 hash : E562FC5A
CRC32 hash (skip zero) : A95BE192
AccurateRip v1 signature : 83E383C0
AccurateRip v2 signature : 2F8934CF
->Accurately ripped (v2, confidence 1/1)
Statistics
Read error : 0
Jitter error (maybe fixed) : 0
Retry sector count : 0
Damaged sector count : 0
No errors occurred
End of status report

Содержание индексной карты (.CUE)

TITLE "Rameau - The Sound of Light"
PERFORMER "Teodor Currentzis"
CATALOG 0888430825727
REM GENRE "Classical"
REM DATE "2014"
REM DISCNUMBER 1
REM TOTALDISCS 1
REM DISCID FE0F9E12
FILE "01.01 Teodor Currentzis - Les Fetes d'Hebe, La Danse, Scene VII. Musette et Tambourin en rondeau pour Terpsichore.flac" WAVE
TRACK 01 AUDIO
TITLE "Les Fêtes d'Hébé, La Danse, Scène VII: Musette et Tambourin en rondeau pour Terpsichore"
PERFORMER "Teodor Currentzis"
SONGWRITER "Jean-Philippe Rameau"
ISRC USSM11404273
INDEX 01 00:00:00
TRACK 02 AUDIO
TITLE "Zoroastre, Acte III, Scène VII: Gavotte en rondeau"
PERFORMER "Teodor Currentzis"
SONGWRITER "Jean-Philippe Rameau"
ISRC USSM11404274
INDEX 00 03:46:39
FILE "01.02 Teodor Currentzis - Zoroastre, Acte III, Scene VII. Gavotte en rondeau.flac" WAVE
INDEX 01 00:00:00
TRACK 03 AUDIO
TITLE "Les Boréades, Acte IV, Scène IV: Entrée pour les Muses, les Zéphyres, les Saisons, les Heures et les Arts"
PERFORMER "Teodor Currentzis"
SONGWRITER "Jean-Philippe Rameau"
ISRC USSM11404275
INDEX 00 02:13:57
FILE "01.03 Teodor Currentzis - Les Boreades, Acte IV, Scene IV. Entree pour les Muses, les Zephyres, les Saisons, les Heures et les Arts.flac" WAVE
INDEX 01 00:00:00
TRACK 04 AUDIO
TITLE "Les Indes galantes, Nouvelle entrée, Les sauvages, Scène VI: Chaconne"
PERFORMER "Teodor Currentzis"
SONGWRITER "Jean-Philippe Rameau"
ISRC USSM11404276
INDEX 00 07:01:53
FILE "01.04 Teodor Currentzis - Les Indes galantes, Nouvelle entree, Les sauvages, Scene VI. Chaconne.flac" WAVE
INDEX 01 00:00:00
FILE "01.05 Teodor Currentzis - Les Indes galantes, Troisieme entree, Les fleurs, Scene VIII. Ballet des fleurs - Orage.flac" WAVE
TRACK 05 AUDIO
TITLE "Les Indes galantes, Troisième entrée, Les fleurs, Scène VIII: Ballet des fleurs - Orage"
PERFORMER "Teodor Currentzis"
SONGWRITER "Jean-Philippe Rameau"
ISRC USSM11404277
INDEX 01 00:00:00
TRACK 06 AUDIO
TITLE "Zoroastre, Act I, Scène III: Air tendre en rendeau"
PERFORMER "Teodor Currentzis"
SONGWRITER "Jean-Philippe Rameau"
ISRC USSM11404278
INDEX 00 00:44:44
FILE "01.06 Teodor Currentzis - Zoroastre, Act I, Scene III. Air tendre en rendeau.flac" WAVE
INDEX 01 00:00:00
TRACK 07 AUDIO
TITLE "Platée, Acte I, Scène VI: Orage"
PERFORMER "Teodor Currentzis"
SONGWRITER "Jean-Philippe Rameau"
ISRC USSM11404279
INDEX 00 02:22:41
FILE "01.07 Teodor Currentzis - Platee, Acte I, Scene VI. Orage.flac" WAVE
INDEX 01 00:00:00
TRACK 08 AUDIO
TITLE "Les Indes galantes, Nouvelle entrée, Les sauvages, Scène VI: Rondeau - Duo et choeur "Forêts paisibles""
PERFORMER "Teodor Currentzis"
SONGWRITER "Jean-Philippe Rameau"
ISRC USSM11404280
INDEX 00 01:51:35
FILE "01.08 Teodor Currentzis - Les Indes galantes, Nouvelle entree, Les sauvages, Scene VI. Rondeau - Duo et choeur "Forets paisibles".flac" WAVE
INDEX 01 00:00:00
TRACK 09 AUDIO
TITLE "Six Concerts transcrits en Sextuor, Sixième concert: La poule"
PERFORMER "Teodor Currentzis"
SONGWRITER "Jean-Philippe Rameau"
ISRC USSM11404281
INDEX 00 03:40:72
FILE "01.09 Teodor Currentzis - Six Concerts transcrits en Sextuor, Sixieme concert. La poule.flac" WAVE
INDEX 01 00:00:00
FILE "01.10 Teodor Currentzis - Platee, Acte II, Scene IV. Recitativ "Essayons du brillant" - Ariette "Aux langueurs d'Apollon".flac" WAVE
TRACK 10 AUDIO
TITLE "Platée, Acte II, Scène IV: Récitativ "Essayons du brillant" - Ariette "Aux langueurs d'Apollon""
PERFORMER "Teodor Currentzis"
SONGWRITER "Jean-Philippe Rameau"
ISRC USSM11404282
INDEX 01 00:00:00
TRACK 11 AUDIO
TITLE "Nais, Prologue, Scène V: Premier rigaudon - Deuxième rigaudon"
PERFORMER "Teodor Currentzis"
SONGWRITER "Jean-Philippe Rameau"
ISRC USSM11404283
INDEX 00 05:13:23
FILE "01.11 Teodor Currentzis - Nais, Prologue, Scene V. Premier rigaudon - Deuxieme rigaudon.flac" WAVE
INDEX 01 00:00:00
TRACK 12 AUDIO
TITLE "Zoroastre: Ouverture"
PERFORMER "Teodor Currentzis"
SONGWRITER "Jean-Philippe Rameau"
ISRC USSM11404284
INDEX 00 02:15:01
FILE "01.12 Teodor Currentzis - Zoroastre. Ouverture.flac" WAVE
INDEX 01 00:00:00
TRACK 13 AUDIO
TITLE "Hippolyte et Aricie, Acte I, Scène I: Prélude - Air accompagné "Temple sacré, séjour tranquille""
PERFORMER "Teodor Currentzis"
SONGWRITER "Jean-Philippe Rameau"
ISRC USSM11404285
INDEX 00 04:19:44
FILE "01.13 Teodor Currentzis - Hippolyte et Aricie, Acte I, Scene I. Prelude - Air accompagne "Temple sacre, sejour tranquille".flac" WAVE
INDEX 01 00:00:00
TRACK 14 AUDIO
TITLE "Nais: Ouverture"
PERFORMER "Teodor Currentzis"
SONGWRITER "Jean-Philippe Rameau"
ISRC USSM11404286
INDEX 00 02:45:15
FILE "01.14 Teodor Currentzis - Nais. Ouverture.flac" WAVE
INDEX 01 00:00:00
TRACK 15 AUDIO
TITLE "Les Boréades, Acte I, Scène IV: Première contredanse en rondeau pour les Peuples boréades travestis en Plaisirs et Grâces - Deuxième contredanse en rondeau pour les Peuples boréades travestis en Plaisirs et Grâces"
PERFORMER "Teodor Currentzis"
SONGWRITER "Jean-Philippe Rameau"
ISRC USSM11404287
INDEX 00 03:55:10
FILE "01.15 Teodor Currentzis - Les Boreades, Acte I, Scene IV. Premiere contredanse en rondeau pour les Peuples boreades travestis en Plaisirs et Grâces - Deuxieme contredanse en rondeau pour les Peuples boreades travestis en Plaisirs et Grâces.flac" WAVE
INDEX 01 00:00:00
FILE "01.16 Teodor Currentzis - Les Indes galantes, Premiere entree, Le turc genereux, Scene VI. Air pour les esclaves africains.flac" WAVE
TRACK 16 AUDIO
TITLE "Les Indes galantes, Première entrée, Le turc généreux, Scène VI: Air pour les esclaves africains"
PERFORMER "Teodor Currentzis"
SONGWRITER "Jean-Philippe Rameau"
ISRC USSM11404288
INDEX 01 00:00:00
TRACK 17 AUDIO
TITLE "Dardanus, Prologue, Scène II: Premier tambourin pour les Peuples de différentes nations - Deuxième tambourin pour les Peuples de différentes nations"
PERFORMER "Teodor Currentzis"
SONGWRITER "Jean-Philippe Rameau"
ISRC USSM11404289
INDEX 00 01:47:28
FILE "01.17 Teodor Currentzis - Dardanus, Prologue, Scene II. Premier tambourin pour les Peuples de differentes nations - Deuxieme tambourin pour les Peuples de differentes nations.flac" WAVE
INDEX 01 00:00:00
TRACK 18 AUDIO
TITLE "Castor et Pollux, Acte I, Scène III: Prélude - Air accompagné "Tristes apprêts""
PERFORMER "Teodor Currentzis"
SONGWRITER "Jean-Philippe Rameau"
ISRC USSM11404290
INDEX 00 02:16:37
FILE "01.18 Teodor Currentzis - Castor et Pollux, Acte I, Scene III. Prelude - Air accompagne "Tristes apprets".flac" WAVE
INDEX 01 00:00:00



Показать сообщения:    

Текущее время: 07-Дек 23:19

Часовой пояс: UTC + 3


Вы не можете начинать темы
Вы не можете отвечать на сообщения
Вы не можете редактировать свои сообщения
Вы не можете удалять свои сообщения
Вы не можете голосовать в опросах
Вы не можете прикреплять файлы к сообщениям
Вы не можете скачивать файлы