(Classical) La creation du monde: Williams, Milhaud, Boutry, Creston, Emilsson, Piazzolla - Claude Delangle, Swedish Wind Ensemble, Christian Lindberg - 2013, FLAC (image+.cue) lossless


 

[Цитировать]

La creation du monde: Williams, Milhaud, Boutry, Creston, Emilsson, Piazzolla - Claude Delangle, Swedish Wind Ensemble, Christian Lindberg
Жанр: Classical
Страна-производитель диска: Sweden
Год издания диска: 2013
Издатель (лейбл): BIS
Номер по каталогу: BIS-CD-1640
Дата записи: 2007
Аудиокодек: FLAC
Тип рипа: image+.cue
Битрейт аудио: lossless
Продолжительность: 68:35
Источник: собственный рип
Наличие сканов в содержимом раздачи: да
Треклист:
John Williams (b.1932), arr. Jay Bocock
[1]-[3] Catch Me If You Can
for alto saxophone and band (2002)
Darius Milhaud (1892–1974)
[4]-[9] La création du monde
for 2 flutes, oboe, 2 clarinets in B flat, bassoon, alto saxophone, horn, 2 trumpets, trombone, percussion, piano, 2 violins, cello and double bass
Roger Boutry (b.1932)
[10]-[12] Divertimento pour saxophone alto et orchestre d’harmonie (1963/2007)
Paul Creston (1906–85)
[13]-[15] Concerto for alto saxophone and band, Op. 26b (1941/44)
Anders Emilsson (b. 1963)
[16] Salute the band
for wind ensemble and percussion (2006)
Ástor Piazzolla (1921–92)
[17] Escualo (1979)
Исполнители:
Claude Delangle alto saxophone (Williams, Boutry, Creston, Piazzolla)
Swedish Wind Ensemble
Christian Lindberg
conductor

Лог создания рипа

Exact Audio Copy V1.0 beta 3 from 29. August 2011
EAC extraction logfile from 17. August 2014, 21:10
Claude Delangle, Swedish Wind Ensemble, Christian Lindberg / La creation du monde
Used drive : HL-DT-STDVDRAM GU70N Adapter: 0 ID: 0
Read mode : Secure
Utilize accurate stream : Yes
Defeat audio cache : Yes
Make use of C2 pointers : No
Read offset correction : 48
Overread into Lead-In and Lead-Out : No
Fill up missing offset samples with silence : Yes
Delete leading and trailing silent blocks : No
Null samples used in CRC calculations : Yes
Used interface : Native Win32 interface for Win NT & 2000
Used output format : User Defined Encoder
Selected bitrate : 128 kBit/s
Quality : High
Add ID3 tag : No
Command line compressor : C:\Program Files (x86)\Exact Audio Copy\Flac\flac.exe
Additional command line options : -V -8 -T "Date=%year%" -T "Genre=%genre%" %source%
TOC of the extracted CD
Track | Start | Length | Start sector | End sector
---------------------------------------------------------
1 | 0:00.00 | 2:53.73 | 0 | 13047
2 | 2:53.73 | 2:11.11 | 13048 | 22883
3 | 5:05.09 | 1:57.18 | 22884 | 31676
4 | 7:02.27 | 4:02.63 | 31677 | 49889
5 | 11:05.15 | 1:42.35 | 49890 | 57574
6 | 12:47.50 | 2:56.17 | 57575 | 70791
7 | 15:43.67 | 2:02.46 | 70792 | 79987
8 | 17:46.38 | 3:49.64 | 79988 | 97226
9 | 21:36.27 | 1:53.16 | 97227 | 105717
10 | 23:29.43 | 3:17.18 | 105718 | 120510
11 | 26:46.61 | 3:47.51 | 120511 | 137586
12 | 30:34.37 | 1:55.62 | 137587 | 146273
13 | 32:30.24 | 6:22.19 | 146274 | 174942
14 | 38:52.43 | 7:15.73 | 174943 | 207640
15 | 46:08.41 | 5:40.48 | 207641 | 233188
16 | 51:49.14 | 12:10.67 | 233189 | 288005
17 | 64:00.06 | 4:35.11 | 288006 | 308641
Range status and errors
Selected range
Filename C:\temp\BIS-CD-1640 - La creation du monde\La creation du monde.wav
Peak level 99.8 %
Extraction speed 2.3 X
Range quality 100.0 %
Test CRC 7F1FF398
Copy CRC 7F1FF398
Copy OK
No errors occurred
AccurateRip summary
Track 1 not present in database
Track 2 not present in database
Track 3 not present in database
Track 4 not present in database
Track 5 not present in database
Track 6 not present in database
Track 7 not present in database
Track 8 not present in database
Track 9 not present in database
Track 10 not present in database
Track 11 not present in database
Track 12 not present in database
Track 13 not present in database
Track 14 not present in database
Track 15 not present in database
Track 16 not present in database
Track 17 not present in database
None of the tracks are present in the AccurateRip database
End of status report
==== Log checksum 8BF2EF419C0EA80E807C447C1320BD23EA203A20EFF504496752213DCEA4E25F ====



Показать сообщения:    

Текущее время: 03-Дек 20:40

Часовой пояс: UTC + 3


Вы не можете начинать темы
Вы не можете отвечать на сообщения
Вы не можете редактировать свои сообщения
Вы не можете удалять свои сообщения
Вы не можете голосовать в опросах
Вы не можете прикреплять файлы к сообщениям
Вы не можете скачивать файлы