(Opera) Wolfgang Amadeus Mozart: Cosi fan tutte (Miah Persson, Angela Brower, Adam Plachetka, Rolando Villazon, Mojca Erdmann, Alessandro Corbelli, Yannick Nezet-Seguin) - 2013, FLAC (tracks+.cue) lossless


 

[Цитировать]

Wolfgang Amadeus Mozart: Cosi fan tutte (Miah Persson, Angela Brower, Adam Plachetka, Rolando Villazón, Mojca Erdmann, Alessandro Corbelli, Yannick Nezet-Seguin)
Жанр: Opera
Год издания диска: 2013
Издатель (лейбл): DG
Номер по каталогу: 4790641
Дата записи: 2012
Аудиокодек: FLAC
Тип рипа: tracks+.cue
Битрейт аудио: lossless
Продолжительность: 2 часа 57 минут
Источник: собственный рип
Исполнители:
Composer: Wolfgang Amadeus Mozart
Fiordiligi: Miah Persson
Dorabella: Angela Brower
Guglielmo: Adam Plachetka
Ferrando: Rolando Villazón
Despina: Mojca Erdmann
Don Alfonso: Alessandro Corbelli
Vocalensemble Rastatt
Chamber Orchestra of Europe
Conductor: Yannick Nézet-Séguin

Треклист:

Wolfgang Amadeus Mozart: Così fan tutte, K.588 4:09
Overture 4:09
Wolfgang Amadeus Mozart: Così fan tutte, K.588 / Act 1 1:26:08
"La mia Dorabella" 1:52
"Fuor la spada" 1:06
"E la fede delle femminine" 1:06
"Scioccerie di poeti" 1:32
"Una bella serenata" 2:24
"Ah, guarda, sorella" 4:37
"Mi par che stamattina" 1:20
"Vorrei dir, e cor non ho" 0:44
"Stelle! Per carità, signor Alfonso" 1:03
"Sento, oh Dio, che questo piede" 3:59
"Non piangere, idol mio!" 0:56
"Al fato dan legge" 1:24
"La commedia è graziosa" 0:28
"Bella vita militar!" 1:28
"Non vè più tempo, amici" 0:34
"Di scrivermi ogni giorno" 2:06
"Bella vita militar!" 0:44
"Dove son?" 0:56
"Soave sia il vento" 2:51
"Non son cattivo comico" 1:04
"Che vita maledetta" 1:09
"Ah, scostati!" 1:03
"Smanie implacabili" 1:59
"Signora Dorabella" 2:15
"In uomini, in soldati" 2:35
"Che silenzio!" 2:59
"Alla bella Despinetta" 4:14
"Che sussurro! Che strepito!" 3:40
"Come scoglio" 4:08
"Ah, non partite" 1:02
"Non siate ritrosi" 1:38
"E voi ridete?" 0:52
"Si può sapere un poco la cagion di quel riso?" 1:05
"Un'aura amorosa" 4:50
"Oh, la saria da ridere!" 2:38
"Ah, che tutta in un momento" 17:47
Wolfgang Amadeus Mozart: Così fan tutte, K.588 / Act 2 1:27:15
"Andate là, che siete due bizzarre ragazze" 3:24
"Una donna a quindici anni" 3:28
"Sorella, cosa dici?" 1:39
"Prenderò quel brunettino" 2:45
"Ah, correte al giardino" 0:31
"Secondate, aurette amiche" 3:20
"Il tutto deponete sopra quei tavolini" 0:58
"La mano a me date" 2:28
"Oh che bella giornata!" 3:11
"Il core vi dono" 4:27
"Barbara! Perché fuggi?" 1:29
"Ei parte... senti... ah no!" 1:31
"Per pietà, ben mio, perdona" 7:37
"Amico, abbiamo vinto!" 4:14
"Donne mie, la fate a tanti" 3:18
"In qual fiero contrasto" 1:22
"Tradito, schernito" 2:12
"Bravo, questa è costanza" 1:29
"Ora vedo che siete" 2:43
"E amore un ladroncello" 3:11
"Come tutto congiura" 2:54
"Fra gli amplessi in pochi istanti" 5:53
"Ah, poveretto me" 2:17
"Tutti accusan le donne" 0:56
"Vittoria, padroncini!" 0:32
"Fate presto, o cari amici" 19:26

Лог создания рипа

X Lossless Decoder version 20141109 (148.0)
XLD extraction logfile from 2014-11-15 00:50:09 +0500
Mozart, Wolfgang Amadeus / Così Fan Tutte [Yannick Nézet-Séguin - Chamber Orchestra Of Europe & Vocalensemble Rastatt]
Used drive : ASUS SBW-06D2X-U (revision D501)
Media type : Pressed CD
Ripper mode : XLD Secure Ripper
Disable audio cache : OK for the drive with a cache less than 1375KiB
Make use of C2 pointers : NO
Read offset correction : 103
Max retry count : 20
Gap status : Analyzed, Appended (except HTOA)
TOC of the extracted CD
Track | Start | Length | Start sector | End sector
---------------------------------------------------------
1 | 00:00:00 | 04:09:67 | 0 | 18741
2 | 04:09:67 | 01:52:33 | 18742 | 27174
3 | 06:02:25 | 01:06:64 | 27175 | 32188
4 | 07:09:14 | 01:06:33 | 32189 | 37171
5 | 08:15:47 | 01:32:45 | 37172 | 44116
6 | 09:48:17 | 02:24:21 | 44117 | 54937
7 | 12:12:38 | 04:37:14 | 54938 | 75726
8 | 16:49:52 | 01:20:01 | 75727 | 81727
9 | 18:09:53 | 00:44:28 | 81728 | 85055
10 | 18:54:06 | 01:03:26 | 85056 | 89806
11 | 19:57:32 | 03:59:71 | 89807 | 107802
12 | 23:57:28 | 00:56:25 | 107803 | 112027
13 | 24:53:53 | 01:24:59 | 112028 | 118386
14 | 26:18:37 | 00:28:26 | 118387 | 120512
15 | 26:46:63 | 01:28:22 | 120513 | 127134
16 | 28:15:10 | 00:34:35 | 127135 | 129719
17 | 28:49:45 | 02:06:65 | 129720 | 139234
18 | 30:56:35 | 00:44:65 | 139235 | 142599
19 | 31:41:25 | 00:56:22 | 142600 | 146821
20 | 32:37:47 | 02:51:36 | 146822 | 159682
21 | 35:29:08 | 01:04:74 | 159683 | 164556
22 | 36:34:07 | 01:09:63 | 164557 | 169794
23 | 37:43:70 | 01:03:60 | 169795 | 174579
24 | 38:47:55 | 01:59:19 | 174580 | 183523
25 | 40:46:74 | 02:15:66 | 183524 | 193714
26 | 43:02:65 | 02:35:14 | 193715 | 205353
27 | 45:38:04 | 02:59:63 | 205354 | 218841
28 | 48:37:67 | 04:14:59 | 218842 | 237950
29 | 52:52:51 | 03:40:08 | 237951 | 254458
30 | 56:32:59 | 04:08:73 | 254459 | 273131
31 | 60:41:57 | 01:02:07 | 273132 | 277788
32 | 61:43:64 | 01:38:57 | 277789 | 285195
33 | 63:22:46 | 00:52:56 | 285196 | 289151
34 | 64:15:27 | 01:05:46 | 289152 | 294072
35 | 65:20:73 | 04:50:38 | 294073 | 315860
AccurateRip Summary (DiscID: 0052390d-07dea528-13107323)
Track 01 : OK (v2, confidence 6/6)
Track 02 : OK (v2, confidence 6/6)
Track 03 : OK (v2, confidence 6/6)
Track 04 : OK (v2, confidence 6/6)
Track 05 : OK (v2, confidence 6/6)
Track 06 : OK (v2, confidence 6/6)
Track 07 : OK (v2, confidence 6/6)
Track 08 : OK (v2, confidence 6/6)
Track 09 : OK (v2, confidence 6/6)
Track 10 : OK (v2, confidence 6/6)
Track 11 : OK (v2, confidence 6/6)
Track 12 : OK (v2, confidence 6/6)
Track 13 : OK (v2, confidence 6/6)
Track 14 : OK (v2, confidence 6/6)
Track 15 : OK (v2, confidence 6/6)
Track 16 : OK (v2, confidence 6/6)
Track 17 : OK (v2, confidence 6/6)
Track 18 : OK (v2, confidence 6/6)
Track 19 : OK (v2, confidence 6/6)
Track 20 : OK (v2, confidence 6/6)
Track 21 : OK (v2, confidence 6/6)
Track 22 : OK (v2, confidence 6/6)
Track 23 : OK (v2, confidence 6/6)
Track 24 : OK (v2, confidence 6/6)
Track 25 : OK (v2, confidence 6/6)
Track 26 : OK (v2, confidence 6/6)
Track 27 : OK (v2, confidence 6/6)
Track 28 : OK (v2, confidence 6/6)
Track 29 : OK (v2, confidence 6/6)
Track 30 : OK (v2, confidence 6/6)
Track 31 : OK (v2, confidence 6/6)
Track 32 : OK (v2, confidence 6/6)
Track 33 : OK (v2, confidence 6/6)
Track 34 : OK (v2, confidence 5/5)
Track 35 : OK (v2, confidence 5/5)
->All tracks accurately ripped.
All Tracks
Statistics
Read error : 0
Jitter error (maybe fixed) : 0
Retry sector count : 0
Damaged sector count : 0
Track 01
Filename : /Volumes/Andy HD2/XLD/Mozart - Cosi Fan Tutte (Yannick Nezet-Seguini)/cd1/01.01 Mozart, Wolfgang Amadeus - Mozart. CosiFan Tutte - Overture.flac
Pre-gap length : 00:02:00
CRC32 hash : 1034CAAE
CRC32 hash (skip zero) : 425969FA
AccurateRip v1 signature : 7D218497
AccurateRip v2 signature : F82B1873
->Accurately ripped (v2, confidence 6/6)
Statistics
Read error : 0
Jitter error (maybe fixed) : 0
Retry sector count : 0
Damaged sector count : 0
Track 02
Filename : /Volumes/Andy HD2/XLD/Mozart - Cosi Fan Tutte (Yannick Nezet-Seguini)/cd1/01.02 Mozart, Wolfgang Amadeus - Mozart. CosiFan Tutte - Act 1. La Mia Dorabella.flac
CRC32 hash : 9F4D5F04
CRC32 hash (skip zero) : 4EC99BC2
AccurateRip v1 signature : 3810B66A
AccurateRip v2 signature : 5C1FCD67
->Accurately ripped (v2, confidence 6/6)
Statistics
Read error : 0
Jitter error (maybe fixed) : 0
Retry sector count : 0
Damaged sector count : 0
Track 03
Filename : /Volumes/Andy HD2/XLD/Mozart - Cosi Fan Tutte (Yannick Nezet-Seguini)/cd1/01.03 Mozart, Wolfgang Amadeus - Mozart. CosiFan Tutte - Act 1. Fuor La Spada.flac
CRC32 hash : 0AAD9029
CRC32 hash (skip zero) : C408A36E
AccurateRip v1 signature : 5DB5D679
AccurateRip v2 signature : 30040BA6
->Accurately ripped (v2, confidence 6/6)
Statistics
Read error : 0
Jitter error (maybe fixed) : 0
Retry sector count : 0
Damaged sector count : 0
Track 04
Filename : /Volumes/Andy HD2/XLD/Mozart - Cosi Fan Tutte (Yannick Nezet-Seguini)/cd1/01.04 Mozart, Wolfgang Amadeus - Mozart. CosiFan Tutte - Act 1. E La Fede Delle Femminine.flac
CRC32 hash : 5BD22106
CRC32 hash (skip zero) : 0CCCA8D3
AccurateRip v1 signature : 850E66ED
AccurateRip v2 signature : BD2E87F2
->Accurately ripped (v2, confidence 6/6)
Statistics
Read error : 0
Jitter error (maybe fixed) : 0
Retry sector count : 0
Damaged sector count : 0
Track 05
Filename : /Volumes/Andy HD2/XLD/Mozart - Cosi Fan Tutte (Yannick Nezet-Seguini)/cd1/01.05 Mozart, Wolfgang Amadeus - Mozart. CosiFan Tutte - Act 1. Scioccerie Di Poeti.flac
CRC32 hash : DCD10745
CRC32 hash (skip zero) : D919CE4D
AccurateRip v1 signature : 5B5B88B3
AccurateRip v2 signature : 123A5909
->Accurately ripped (v2, confidence 6/6)
Statistics
Read error : 0
Jitter error (maybe fixed) : 0
Retry sector count : 0
Damaged sector count : 0
Track 06
Filename : /Volumes/Andy HD2/XLD/Mozart - Cosi Fan Tutte (Yannick Nezet-Seguini)/cd1/01.06 Mozart, Wolfgang Amadeus - Mozart. CosiFan Tutte - Act 1. Una Bella Serenata.flac
CRC32 hash : 585FF96A
CRC32 hash (skip zero) : 30A3B2D4
AccurateRip v1 signature : 52256A43
AccurateRip v2 signature : 749AC2C4
->Accurately ripped (v2, confidence 6/6)
Statistics
Read error : 0
Jitter error (maybe fixed) : 0
Retry sector count : 0
Damaged sector count : 0
Track 07
Filename : /Volumes/Andy HD2/XLD/Mozart - Cosi Fan Tutte (Yannick Nezet-Seguini)/cd1/01.07 Mozart, Wolfgang Amadeus - Mozart. CosiFan Tutte - Act 1. Ah, Guarda, Sorella.flac
CRC32 hash : B0CA5BA4
CRC32 hash (skip zero) : 0E435E19
AccurateRip v1 signature : 92EE1F04
AccurateRip v2 signature : BD9EDD82
->Accurately ripped (v2, confidence 6/6)
Statistics
Read error : 0
Jitter error (maybe fixed) : 0
Retry sector count : 0
Damaged sector count : 0
Track 08
Filename : /Volumes/Andy HD2/XLD/Mozart - Cosi Fan Tutte (Yannick Nezet-Seguini)/cd1/01.08 Mozart, Wolfgang Amadeus - Mozart. CosiFan Tutte - Act 1. Mi Par Che Stamattina.flac
CRC32 hash : 5E70D682
CRC32 hash (skip zero) : 58388D31
AccurateRip v1 signature : 5BB8DEF8
AccurateRip v2 signature : 09024CC2
->Accurately ripped (v2, confidence 6/6)
Statistics
Read error : 0
Jitter error (maybe fixed) : 0
Retry sector count : 0
Damaged sector count : 0
Track 09
Filename : /Volumes/Andy HD2/XLD/Mozart - Cosi Fan Tutte (Yannick Nezet-Seguini)/cd1/01.09 Mozart, Wolfgang Amadeus - Mozart. CosiFan Tutte - Act 1. Vorrei Dir, E Cor Non Ho.flac
CRC32 hash : D470E2CA
CRC32 hash (skip zero) : BAC64DBB
AccurateRip v1 signature : 9EABDF07
AccurateRip v2 signature : 3D2EF76D
->Accurately ripped (v2, confidence 6/6)
Statistics
Read error : 0
Jitter error (maybe fixed) : 0
Retry sector count : 0
Damaged sector count : 0
Track 10
Filename : /Volumes/Andy HD2/XLD/Mozart - Cosi Fan Tutte (Yannick Nezet-Seguini)/cd1/01.10 Mozart, Wolfgang Amadeus - Mozart. CosiFan Tutte - Act 1. Stelle! Per Carità, Signor Alfonso.flac
CRC32 hash : C3180674
CRC32 hash (skip zero) : AFAE65BE
AccurateRip v1 signature : 183BB7E4
AccurateRip v2 signature : 822672E6
->Accurately ripped (v2, confidence 6/6)
Statistics
Read error : 0
Jitter error (maybe fixed) : 0
Retry sector count : 0
Damaged sector count : 0
Track 11
Filename : /Volumes/Andy HD2/XLD/Mozart - Cosi Fan Tutte (Yannick Nezet-Seguini)/cd1/01.11 Mozart, Wolfgang Amadeus - Mozart. CosiFan Tutte - Act 1. Sento, Oh Dio, Che Questo Piede.flac
CRC32 hash : E3CED899
CRC32 hash (skip zero) : 8E5C7623
AccurateRip v1 signature : 35709D90
AccurateRip v2 signature : 7425E15C
->Accurately ripped (v2, confidence 6/6)
Statistics
Read error : 0
Jitter error (maybe fixed) : 0
Retry sector count : 0
Damaged sector count : 0
Track 12
Filename : /Volumes/Andy HD2/XLD/Mozart - Cosi Fan Tutte (Yannick Nezet-Seguini)/cd1/01.12 Mozart, Wolfgang Amadeus - Mozart. CosiFan Tutte - Act 1. Non Piangere, Idol Mio!.flac
CRC32 hash : 7EFC1C55
CRC32 hash (skip zero) : 54E9466C
AccurateRip v1 signature : 206EB571
AccurateRip v2 signature : 75C7FF3E
->Accurately ripped (v2, confidence 6/6)
Statistics
Read error : 0
Jitter error (maybe fixed) : 0
Retry sector count : 0
Damaged sector count : 0
Track 13
Filename : /Volumes/Andy HD2/XLD/Mozart - Cosi Fan Tutte (Yannick Nezet-Seguini)/cd1/01.13 Mozart, Wolfgang Amadeus - Mozart. CosiFan Tutte - Act 1. Al Fato Dan Legge.flac
CRC32 hash : E46662FF
CRC32 hash (skip zero) : E0BA2AAA
AccurateRip v1 signature : 7B5A9905
AccurateRip v2 signature : 34BE0C36
->Accurately ripped (v2, confidence 6/6)
Statistics
Read error : 0
Jitter error (maybe fixed) : 0
Retry sector count : 0
Damaged sector count : 0
Track 14
Filename : /Volumes/Andy HD2/XLD/Mozart - Cosi Fan Tutte (Yannick Nezet-Seguini)/cd1/01.14 Mozart, Wolfgang Amadeus - Mozart. CosiFan Tutte - Act 1. La Commedia E Graziosa.flac
CRC32 hash : 13F475CB
CRC32 hash (skip zero) : CDE7266A
AccurateRip v1 signature : FA4839AD
AccurateRip v2 signature : 23CCC24B
->Accurately ripped (v2, confidence 6/6)
Statistics
Read error : 0
Jitter error (maybe fixed) : 0
Retry sector count : 0
Damaged sector count : 0
Track 15
Filename : /Volumes/Andy HD2/XLD/Mozart - Cosi Fan Tutte (Yannick Nezet-Seguini)/cd1/01.15 Mozart, Wolfgang Amadeus - Mozart. CosiFan Tutte - Act 1. Bella Vita Militar!.flac
CRC32 hash : 19E98533
CRC32 hash (skip zero) : 54FE7469
AccurateRip v1 signature : A2E913CB
AccurateRip v2 signature : 5137BF72
->Accurately ripped (v2, confidence 6/6)
Statistics
Read error : 0
Jitter error (maybe fixed) : 0
Retry sector count : 0
Damaged sector count : 0
Track 16
Filename : /Volumes/Andy HD2/XLD/Mozart - Cosi Fan Tutte (Yannick Nezet-Seguini)/cd1/01.16 Mozart, Wolfgang Amadeus - Mozart. CosiFan Tutte - Act 1. Non Ve Piu Tempo, Amici.flac
CRC32 hash : E3266D3C
CRC32 hash (skip zero) : 4E86F422
AccurateRip v1 signature : 7B9FFC0A
AccurateRip v2 signature : 1F34E955
->Accurately ripped (v2, confidence 6/6)
Statistics
Read error : 0
Jitter error (maybe fixed) : 0
Retry sector count : 0
Damaged sector count : 0
Track 17
Filename : /Volumes/Andy HD2/XLD/Mozart - Cosi Fan Tutte (Yannick Nezet-Seguini)/cd1/01.17 Mozart, Wolfgang Amadeus - Mozart. CosiFan Tutte - Act 1. Di Scrivermi Ogni Giorno.flac
CRC32 hash : 501EC0AF
CRC32 hash (skip zero) : A910BAE6
AccurateRip v1 signature : 2EAC03FE
AccurateRip v2 signature : 125AF9D7
->Accurately ripped (v2, confidence 6/6)
Statistics
Read error : 0
Jitter error (maybe fixed) : 0
Retry sector count : 0
Damaged sector count : 0
Track 18
Filename : /Volumes/Andy HD2/XLD/Mozart - Cosi Fan Tutte (Yannick Nezet-Seguini)/cd1/01.18 Mozart, Wolfgang Amadeus - Mozart. CosiFan Tutte - Act 1. Bella Vita Militar!.flac
CRC32 hash : 78B265AD
CRC32 hash (skip zero) : A7B46EFB
AccurateRip v1 signature : 407DD242
AccurateRip v2 signature : FD7BE85C
->Accurately ripped (v2, confidence 6/6)
Statistics
Read error : 0
Jitter error (maybe fixed) : 0
Retry sector count : 0
Damaged sector count : 0
Track 19
Filename : /Volumes/Andy HD2/XLD/Mozart - Cosi Fan Tutte (Yannick Nezet-Seguini)/cd1/01.19 Mozart, Wolfgang Amadeus - Mozart. CosiFan Tutte - Act 1. Dove Son?.flac
CRC32 hash : 306F60DD
CRC32 hash (skip zero) : 39982ABA
AccurateRip v1 signature : 2E8EB437
AccurateRip v2 signature : A39AE7DF
->Accurately ripped (v2, confidence 6/6)
Statistics
Read error : 0
Jitter error (maybe fixed) : 0
Retry sector count : 0
Damaged sector count : 0
Track 20
Filename : /Volumes/Andy HD2/XLD/Mozart - Cosi Fan Tutte (Yannick Nezet-Seguini)/cd1/01.20 Mozart, Wolfgang Amadeus - Mozart. CosiFan Tutte - Act 1. Soave Sia Il Vento.flac
CRC32 hash : 36E8559E
CRC32 hash (skip zero) : 9B94F7DA
AccurateRip v1 signature : BE55D7C6
AccurateRip v2 signature : C8643220
->Accurately ripped (v2, confidence 6/6)
Statistics
Read error : 0
Jitter error (maybe fixed) : 0
Retry sector count : 0
Damaged sector count : 0
Track 21
Filename : /Volumes/Andy HD2/XLD/Mozart - Cosi Fan Tutte (Yannick Nezet-Seguini)/cd1/01.21 Mozart, Wolfgang Amadeus - Mozart. CosiFan Tutte - Act 1. Non Son Cattivo Comico.flac
CRC32 hash : 52DBA8DC
CRC32 hash (skip zero) : 1EBF576A
AccurateRip v1 signature : 11FF5D22
AccurateRip v2 signature : 82E0C913
->Accurately ripped (v2, confidence 6/6)
Statistics
Read error : 0
Jitter error (maybe fixed) : 0
Retry sector count : 0
Damaged sector count : 0
Track 22
Filename : /Volumes/Andy HD2/XLD/Mozart - Cosi Fan Tutte (Yannick Nezet-Seguini)/cd1/01.22 Mozart, Wolfgang Amadeus - Mozart. CosiFan Tutte - Act 1. Che Vita Maledetta.flac
CRC32 hash : 5F4616FD
CRC32 hash (skip zero) : 251F1237
AccurateRip v1 signature : A6B73A88
AccurateRip v2 signature : EE2FAD15
->Accurately ripped (v2, confidence 6/6)
Statistics
Read error : 0
Jitter error (maybe fixed) : 0
Retry sector count : 0
Damaged sector count : 0
Track 23
Filename : /Volumes/Andy HD2/XLD/Mozart - Cosi Fan Tutte (Yannick Nezet-Seguini)/cd1/01.23 Mozart, Wolfgang Amadeus - Mozart. CosiFan Tutte - Act 1. Ah, Scostati!.flac
CRC32 hash : 193A6F75
CRC32 hash (skip zero) : F8247A79
AccurateRip v1 signature : F27F25F4
AccurateRip v2 signature : 3D358CE4
->Accurately ripped (v2, confidence 6/6)
Statistics
Read error : 0
Jitter error (maybe fixed) : 0
Retry sector count : 0
Damaged sector count : 0
Track 24
Filename : /Volumes/Andy HD2/XLD/Mozart - Cosi Fan Tutte (Yannick Nezet-Seguini)/cd1/01.24 Mozart, Wolfgang Amadeus - Mozart. CosiFan Tutte - Act 1. Smanie Implacabili.flac
CRC32 hash : 0AC22BCE
CRC32 hash (skip zero) : ED690A10
AccurateRip v1 signature : 6A4C87FE
AccurateRip v2 signature : FB45584D
->Accurately ripped (v2, confidence 6/6)
Statistics
Read error : 0
Jitter error (maybe fixed) : 0
Retry sector count : 0
Damaged sector count : 0
Track 25
Filename : /Volumes/Andy HD2/XLD/Mozart - Cosi Fan Tutte (Yannick Nezet-Seguini)/cd1/01.25 Mozart, Wolfgang Amadeus - Mozart. CosiFan Tutte - Act 1. Signora Dorabella.flac
CRC32 hash : F16F7C9F
CRC32 hash (skip zero) : A1C66FBD
AccurateRip v1 signature : 6A7AC14C
AccurateRip v2 signature : B4AAE84F
->Accurately ripped (v2, confidence 6/6)
Statistics
Read error : 0
Jitter error (maybe fixed) : 0
Retry sector count : 0
Damaged sector count : 0
Track 26
Filename : /Volumes/Andy HD2/XLD/Mozart - Cosi Fan Tutte (Yannick Nezet-Seguini)/cd1/01.26 Mozart, Wolfgang Amadeus - Mozart. CosiFan Tutte - Act 1. In Uomini, In Soldati.flac
CRC32 hash : B7869F0D
CRC32 hash (skip zero) : 2C3A512D
AccurateRip v1 signature : 0DDB3625
AccurateRip v2 signature : E9463402
->Accurately ripped (v2, confidence 6/6)
Statistics
Read error : 0
Jitter error (maybe fixed) : 0
Retry sector count : 0
Damaged sector count : 0
Track 27
Filename : /Volumes/Andy HD2/XLD/Mozart - Cosi Fan Tutte (Yannick Nezet-Seguini)/cd1/01.27 Mozart, Wolfgang Amadeus - Mozart. CosiFan Tutte - Act 1. Che Silenzio!.flac
CRC32 hash : 3F311C9A
CRC32 hash (skip zero) : 6BED414D
AccurateRip v1 signature : F9D6729A
AccurateRip v2 signature : A314C8FB
->Accurately ripped (v2, confidence 6/6)
Statistics
Read error : 0
Jitter error (maybe fixed) : 0
Retry sector count : 0
Damaged sector count : 0
Track 28
Filename : /Volumes/Andy HD2/XLD/Mozart - Cosi Fan Tutte (Yannick Nezet-Seguini)/cd1/01.28 Mozart, Wolfgang Amadeus - Mozart. CosiFan Tutte - Act 1. Alla Bella Despinetta.flac
CRC32 hash : B915A0F7
CRC32 hash (skip zero) : E09FF906
AccurateRip v1 signature : 99A66B91
AccurateRip v2 signature : 9AD3398E
->Accurately ripped (v2, confidence 6/6)
Statistics
Read error : 0
Jitter error (maybe fixed) : 0
Retry sector count : 0
Damaged sector count : 0
Track 29
Filename : /Volumes/Andy HD2/XLD/Mozart - Cosi Fan Tutte (Yannick Nezet-Seguini)/cd1/01.29 Mozart, Wolfgang Amadeus - Mozart. CosiFan Tutte - Act 1. Che Sussurro! Che Strepito!.flac
CRC32 hash : 822D006B
CRC32 hash (skip zero) : 48D49925
AccurateRip v1 signature : A2579BD4
AccurateRip v2 signature : B2056596
->Accurately ripped (v2, confidence 6/6)
Statistics
Read error : 0
Jitter error (maybe fixed) : 0
Retry sector count : 0
Damaged sector count : 0
Track 30
Filename : /Volumes/Andy HD2/XLD/Mozart - Cosi Fan Tutte (Yannick Nezet-Seguini)/cd1/01.30 Mozart, Wolfgang Amadeus - Mozart. CosiFan Tutte - Act 1. Come Scoglio.flac
CRC32 hash : 43013D82
CRC32 hash (skip zero) : C75C3006
AccurateRip v1 signature : CD796AEC
AccurateRip v2 signature : BAFA2510
->Accurately ripped (v2, confidence 6/6)
Statistics
Read error : 0
Jitter error (maybe fixed) : 0
Retry sector count : 0
Damaged sector count : 0
Track 31
Filename : /Volumes/Andy HD2/XLD/Mozart - Cosi Fan Tutte (Yannick Nezet-Seguini)/cd1/01.31 Mozart, Wolfgang Amadeus - Mozart. CosiFan Tutte - Act 1. Ah, Non Partite.flac
CRC32 hash : 55E769C3
CRC32 hash (skip zero) : F6CFBE24
AccurateRip v1 signature : 1B1F4430
AccurateRip v2 signature : CE2861D3
->Accurately ripped (v2, confidence 6/6)
Statistics
Read error : 0
Jitter error (maybe fixed) : 0
Retry sector count : 0
Damaged sector count : 0
Track 32
Filename : /Volumes/Andy HD2/XLD/Mozart - Cosi Fan Tutte (Yannick Nezet-Seguini)/cd1/01.32 Mozart, Wolfgang Amadeus - Mozart. CosiFan Tutte - Act 1. Non Siate Ritrosi.flac
CRC32 hash : 133A8DF7
CRC32 hash (skip zero) : 0C78F185
AccurateRip v1 signature : 9B6D799F
AccurateRip v2 signature : 7BF16612
->Accurately ripped (v2, confidence 6/6)
Statistics
Read error : 0
Jitter error (maybe fixed) : 0
Retry sector count : 0
Damaged sector count : 0
Track 33
Filename : /Volumes/Andy HD2/XLD/Mozart - Cosi Fan Tutte (Yannick Nezet-Seguini)/cd1/01.33 Mozart, Wolfgang Amadeus - Mozart. CosiFan Tutte - Act 1. E Voi Ridete?.flac
CRC32 hash : D40345BA
CRC32 hash (skip zero) : D768DF7E
AccurateRip v1 signature : 1782083E
AccurateRip v2 signature : 13C68E5C
->Accurately ripped (v2, confidence 6/6)
Statistics
Read error : 0
Jitter error (maybe fixed) : 0
Retry sector count : 0
Damaged sector count : 0
Track 34
Filename : /Volumes/Andy HD2/XLD/Mozart - Cosi Fan Tutte (Yannick Nezet-Seguini)/cd1/01.34 Mozart, Wolfgang Amadeus - Mozart. CosiFan Tutte - Act 1. Si Può Sapere Un Poco La Cagion Di Quel Riso?.flac
CRC32 hash : 418024C2
CRC32 hash (skip zero) : A6CCF3A0
AccurateRip v1 signature : 2E7B16AA
AccurateRip v2 signature : 4C51DC70
->Accurately ripped (v2, confidence 5/5)
Statistics
Read error : 0
Jitter error (maybe fixed) : 0
Retry sector count : 0
Damaged sector count : 0
Track 35
Filename : /Volumes/Andy HD2/XLD/Mozart - Cosi Fan Tutte (Yannick Nezet-Seguini)/cd1/01.35 Mozart, Wolfgang Amadeus - Mozart. CosiFan Tutte - Act 1. Un'Aura Amorosa.flac
CRC32 hash : B8F9DFB6
CRC32 hash (skip zero) : 018BDBC2
AccurateRip v1 signature : 44E8ACC1
AccurateRip v2 signature : 89891BFB
->Accurately ripped (v2, confidence 5/5)
Statistics
Read error : 0
Jitter error (maybe fixed) : 0
Retry sector count : 0
Damaged sector count : 0
No errors occurred
End of status report
X Lossless Decoder version 20141109 (148.0)
XLD extraction logfile from 2014-11-15 01:04:57 +0500
Mozart, Wolfgang Amadeus / Così Fan Tutte [Yannick Nézet-Séguin - Chamber Orchestra Of Europe & Vocalensemble Rastatt]
Used drive : ASUS SBW-06D2X-U (revision D501)
Media type : Pressed CD
Ripper mode : XLD Secure Ripper
Disable audio cache : OK for the drive with a cache less than 1375KiB
Make use of C2 pointers : NO
Read offset correction : 103
Max retry count : 20
Gap status : Analyzed, Appended (except HTOA)
TOC of the extracted CD
Track | Start | Length | Start sector | End sector
---------------------------------------------------------
1 | 00:00:00 | 02:38:62 | 0 | 11911
2 | 02:38:62 | 17:47:20 | 11912 | 91956
3 | 20:26:07 | 03:24:60 | 91957 | 107316
4 | 23:50:67 | 03:28:29 | 107317 | 122945
5 | 27:19:21 | 01:39:14 | 122946 | 130384
6 | 28:58:35 | 02:45:71 | 130385 | 142830
7 | 31:44:31 | 00:31:18 | 142831 | 145173
8 | 32:15:49 | 03:20:35 | 145174 | 160208
9 | 35:36:09 | 00:58:64 | 160209 | 164622
10 | 36:34:73 | 02:28:36 | 164623 | 175758
11 | 39:03:34 | 03:11:32 | 175759 | 190115
12 | 42:14:66 | 04:27:17 | 190116 | 210157
13 | 46:42:08 | 01:29:55 | 210158 | 216887
14 | 48:11:63 | 01:31:00 | 216888 | 223712
15 | 49:42:63 | 07:37:08 | 223713 | 257995
AccurateRip Summary (DiscID: 0023e370-017b0fc6-d50d6f0f)
Track 01 : OK (v2, confidence 6/6)
Track 02 : OK (v2, confidence 6/6)
Track 03 : OK (v2, confidence 6/6)
Track 04 : OK (v2, confidence 6/6)
Track 05 : OK (v2, confidence 6/6)
Track 06 : OK (v2, confidence 6/6)
Track 07 : OK (v2, confidence 6/6)
Track 08 : OK (v2, confidence 6/6)
Track 09 : OK (v2, confidence 6/6)
Track 10 : OK (v2, confidence 6/6)
Track 11 : OK (v2, confidence 6/6)
Track 12 : OK (v2, confidence 6/6)
Track 13 : OK (v2, confidence 6/6)
Track 14 : OK (v2, confidence 6/6)
Track 15 : OK (v2, confidence 6/6)
->All tracks accurately ripped.
All Tracks
Statistics
Read error : 0
Jitter error (maybe fixed) : 0
Retry sector count : 0
Damaged sector count : 0
Track 01
Filename : /Volumes/Andy HD2/XLD/Mozart - Cosi Fan Tutte (Yannick Nezet-Seguini)/cd2/02.01 Mozart, Wolfgang Amadeus - Mozart. CosiFan Tutte - Act 1. Oh, La Saria Da Ridere!.flac
Pre-gap length : 00:02:00
CRC32 hash : EA1B220F
CRC32 hash (skip zero) : C8FA847C
AccurateRip v1 signature : ED32EF0A
AccurateRip v2 signature : 80030ABF
->Accurately ripped (v2, confidence 6/6)
Statistics
Read error : 0
Jitter error (maybe fixed) : 0
Retry sector count : 0
Damaged sector count : 0
Track 02
Filename : /Volumes/Andy HD2/XLD/Mozart - Cosi Fan Tutte (Yannick Nezet-Seguini)/cd2/02.02 Mozart, Wolfgang Amadeus - Mozart. CosiFan Tutte - Act 1. Ah, Che Tutta In Un Momento.flac
CRC32 hash : 11B73FF3
CRC32 hash (skip zero) : 774DAF2A
AccurateRip v1 signature : 443DDCCA
AccurateRip v2 signature : B6CEE30A
->Accurately ripped (v2, confidence 6/6)
Statistics
Read error : 0
Jitter error (maybe fixed) : 0
Retry sector count : 0
Damaged sector count : 0
Track 03
Filename : /Volumes/Andy HD2/XLD/Mozart - Cosi Fan Tutte (Yannick Nezet-Seguini)/cd2/02.03 Mozart, Wolfgang Amadeus - Mozart. CosiFan Tutte - Act 2. Andate Là, Che Siete Due Bizzarre Ragazze.flac
CRC32 hash : 5099CC0E
CRC32 hash (skip zero) : A7586088
AccurateRip v1 signature : C973CC3E
AccurateRip v2 signature : 1D9A0430
->Accurately ripped (v2, confidence 6/6)
Statistics
Read error : 0
Jitter error (maybe fixed) : 0
Retry sector count : 0
Damaged sector count : 0
Track 04
Filename : /Volumes/Andy HD2/XLD/Mozart - Cosi Fan Tutte (Yannick Nezet-Seguini)/cd2/02.04 Mozart, Wolfgang Amadeus - Mozart. CosiFan Tutte - Act 2. Una Donna A Quindici Anni.flac
CRC32 hash : 1C90EFE5
CRC32 hash (skip zero) : DBB5EEC5
AccurateRip v1 signature : E57604FA
AccurateRip v2 signature : A5DA7794
->Accurately ripped (v2, confidence 6/6)
Statistics
Read error : 0
Jitter error (maybe fixed) : 0
Retry sector count : 0
Damaged sector count : 0
Track 05
Filename : /Volumes/Andy HD2/XLD/Mozart - Cosi Fan Tutte (Yannick Nezet-Seguini)/cd2/02.05 Mozart, Wolfgang Amadeus - Mozart. CosiFan Tutte - Act 2. Sorella, Cosa Dici?.flac
CRC32 hash : D7578E1B
CRC32 hash (skip zero) : CA1674B2
AccurateRip v1 signature : B30EF8E3
AccurateRip v2 signature : B7F81020
->Accurately ripped (v2, confidence 6/6)
Statistics
Read error : 0
Jitter error (maybe fixed) : 0
Retry sector count : 0
Damaged sector count : 0
Track 06
Filename : /Volumes/Andy HD2/XLD/Mozart - Cosi Fan Tutte (Yannick Nezet-Seguini)/cd2/02.06 Mozart, Wolfgang Amadeus - Mozart. CosiFan Tutte - Act 2. Prenderò Quel Brunettino.flac
CRC32 hash : 8F33FAC1
CRC32 hash (skip zero) : A3FB6F40
AccurateRip v1 signature : 7D27C903
AccurateRip v2 signature : 03716789
->Accurately ripped (v2, confidence 6/6)
Statistics
Read error : 0
Jitter error (maybe fixed) : 0
Retry sector count : 0
Damaged sector count : 0
Track 07
Filename : /Volumes/Andy HD2/XLD/Mozart - Cosi Fan Tutte (Yannick Nezet-Seguini)/cd2/02.07 Mozart, Wolfgang Amadeus - Mozart. CosiFan Tutte - Act 2. Ah, Correte Al Giardino.flac
CRC32 hash : 5CD6BC3A
CRC32 hash (skip zero) : 17D0DA9B
AccurateRip v1 signature : EA5DE3FD
AccurateRip v2 signature : 163EBBB0
->Accurately ripped (v2, confidence 6/6)
Statistics
Read error : 0
Jitter error (maybe fixed) : 0
Retry sector count : 0
Damaged sector count : 0
Track 08
Filename : /Volumes/Andy HD2/XLD/Mozart - Cosi Fan Tutte (Yannick Nezet-Seguini)/cd2/02.08 Mozart, Wolfgang Amadeus - Mozart. CosiFan Tutte - Act 2. Secondate, Aurette Amiche.flac
CRC32 hash : EF49982F
CRC32 hash (skip zero) : 41AEE554
AccurateRip v1 signature : 2A8954D6
AccurateRip v2 signature : F988BCBE
->Accurately ripped (v2, confidence 6/6)
Statistics
Read error : 0
Jitter error (maybe fixed) : 0
Retry sector count : 0
Damaged sector count : 0
Track 09
Filename : /Volumes/Andy HD2/XLD/Mozart - Cosi Fan Tutte (Yannick Nezet-Seguini)/cd2/02.09 Mozart, Wolfgang Amadeus - Mozart. CosiFan Tutte - Act 2. Il Tutto Deponete Sopra Quei Tavolini.flac
CRC32 hash : EC5A3A1E
CRC32 hash (skip zero) : 8D753A0E
AccurateRip v1 signature : 623023FC
AccurateRip v2 signature : 7402A956
->Accurately ripped (v2, confidence 6/6)
Statistics
Read error : 0
Jitter error (maybe fixed) : 0
Retry sector count : 0
Damaged sector count : 0
Track 10
Filename : /Volumes/Andy HD2/XLD/Mozart - Cosi Fan Tutte (Yannick Nezet-Seguini)/cd2/02.10 Mozart, Wolfgang Amadeus - Mozart. CosiFan Tutte - Act 2. La Mano A Me Date.flac
CRC32 hash : 974DC85A
CRC32 hash (skip zero) : 865D3934
AccurateRip v1 signature : 47DD6ECC
AccurateRip v2 signature : 335E164E
->Accurately ripped (v2, confidence 6/6)
Statistics
Read error : 0
Jitter error (maybe fixed) : 0
Retry sector count : 0
Damaged sector count : 0
Track 11
Filename : /Volumes/Andy HD2/XLD/Mozart - Cosi Fan Tutte (Yannick Nezet-Seguini)/cd2/02.11 Mozart, Wolfgang Amadeus - Mozart. CosiFan Tutte - Act 2. Oh Che Bella Giornata!.flac
CRC32 hash : 922B6650
CRC32 hash (skip zero) : 198A7C86
AccurateRip v1 signature : 3193C16D
AccurateRip v2 signature : 84E6768A
->Accurately ripped (v2, confidence 6/6)
Statistics
Read error : 0
Jitter error (maybe fixed) : 0
Retry sector count : 0
Damaged sector count : 0
Track 12
Filename : /Volumes/Andy HD2/XLD/Mozart - Cosi Fan Tutte (Yannick Nezet-Seguini)/cd2/02.12 Mozart, Wolfgang Amadeus - Mozart. CosiFan Tutte - Act 2. Il Core VI Dono.flac
CRC32 hash : F6DFCB48
CRC32 hash (skip zero) : 5F191F49
AccurateRip v1 signature : C33966C3
AccurateRip v2 signature : 2E32D528
->Accurately ripped (v2, confidence 6/6)
Statistics
Read error : 0
Jitter error (maybe fixed) : 0
Retry sector count : 0
Damaged sector count : 0
Track 13
Filename : /Volumes/Andy HD2/XLD/Mozart - Cosi Fan Tutte (Yannick Nezet-Seguini)/cd2/02.13 Mozart, Wolfgang Amadeus - Mozart. CosiFan Tutte - Act 2. Barbara! Perche Fuggi?.flac
CRC32 hash : 76BDC330
CRC32 hash (skip zero) : 6988BDB2
AccurateRip v1 signature : 7CD7FDD5
AccurateRip v2 signature : 35469BC8
->Accurately ripped (v2, confidence 6/6)
Statistics
Read error : 0
Jitter error (maybe fixed) : 0
Retry sector count : 0
Damaged sector count : 0
Track 14
Filename : /Volumes/Andy HD2/XLD/Mozart - Cosi Fan Tutte (Yannick Nezet-Seguini)/cd2/02.14 Mozart, Wolfgang Amadeus - Mozart. CosiFan Tutte - Act 2. Ei Parte...Senti...Ah No!.flac
CRC32 hash : 23E4304B
CRC32 hash (skip zero) : 1F7C83B0
AccurateRip v1 signature : 82060565
AccurateRip v2 signature : 5893D7BC
->Accurately ripped (v2, confidence 6/6)
Statistics
Read error : 0
Jitter error (maybe fixed) : 0
Retry sector count : 0
Damaged sector count : 0
Track 15
Filename : /Volumes/Andy HD2/XLD/Mozart - Cosi Fan Tutte (Yannick Nezet-Seguini)/cd2/02.15 Mozart, Wolfgang Amadeus - Mozart. CosiFan Tutte - Act 2. Per Pietà, Ben Mio, Perdona.flac
CRC32 hash : 486308FC
CRC32 hash (skip zero) : 931FE0D0
AccurateRip v1 signature : C9E5A757
AccurateRip v2 signature : 6B239381
->Accurately ripped (v2, confidence 6/6)
Statistics
Read error : 0
Jitter error (maybe fixed) : 0
Retry sector count : 0
Damaged sector count : 0
No errors occurred
End of status report
X Lossless Decoder version 20141109 (148.0)
XLD extraction logfile from 2014-11-15 01:16:31 +0500
Mozart, Wolfgang Amadeus / Così Fan Tutte [Yannick Nézet-Séguin - Chamber Orchestra Of Europe & Vocalensemble Rastatt]
Used drive : ASUS SBW-06D2X-U (revision D501)
Media type : Pressed CD
Ripper mode : XLD Secure Ripper
Disable audio cache : OK for the drive with a cache less than 1375KiB
Make use of C2 pointers : NO
Read offset correction : 103
Max retry count : 20
Gap status : Analyzed, Appended (except HTOA)
TOC of the extracted CD
Track | Start | Length | Start sector | End sector
---------------------------------------------------------
1 | 00:00:00 | 04:14:35 | 0 | 19084
2 | 04:14:35 | 03:18:13 | 19085 | 33947
3 | 07:32:48 | 01:22:31 | 33948 | 40128
4 | 08:55:04 | 02:12:45 | 40129 | 50073
5 | 11:07:49 | 01:29:47 | 50074 | 56795
6 | 12:37:21 | 02:43:19 | 56796 | 69039
7 | 15:20:40 | 03:11:37 | 69040 | 83401
8 | 18:32:02 | 02:54:61 | 83402 | 96512
9 | 21:26:63 | 05:53:54 | 96513 | 123041
10 | 27:20:42 | 02:17:08 | 123042 | 133324
11 | 29:37:50 | 00:56:26 | 133325 | 137550
12 | 30:34:01 | 00:32:69 | 137551 | 140019
13 | 31:06:70 | 19:26:27 | 140020 | 227496
AccurateRip Summary (DiscID: 00127836-00bb20bf-ca0bd90d)
Track 01 : OK (v2, confidence 6/6)
Track 02 : OK (v2, confidence 6/6)
Track 03 : OK (v2, confidence 6/6)
Track 04 : OK (v2, confidence 6/6)
Track 05 : OK (v2, confidence 6/6)
Track 06 : OK (v2, confidence 6/6)
Track 07 : OK (v2, confidence 6/6)
Track 08 : OK (v2, confidence 6/6)
Track 09 : OK (v2, confidence 6/6)
Track 10 : OK (v2, confidence 6/6)
Track 11 : OK (v2, confidence 6/6)
Track 12 : OK (v2, confidence 6/6)
Track 13 : OK (v2, confidence 6/6)
->All tracks accurately ripped.
All Tracks
Statistics
Read error : 0
Jitter error (maybe fixed) : 0
Retry sector count : 0
Damaged sector count : 0
Track 01
Filename : /Volumes/Andy HD2/XLD/Mozart - Cosi Fan Tutte (Yannick Nezet-Seguini)/cd3/03.01 Mozart, Wolfgang Amadeus - Mozart. CosiFan Tutte - Act 2. Amico, Abbiamo Vinto!.flac
Pre-gap length : 00:02:00
CRC32 hash : 24895B53
CRC32 hash (skip zero) : 714AC442
AccurateRip v1 signature : 8F4CB755
AccurateRip v2 signature : E7C22EC1
->Accurately ripped (v2, confidence 6/6)
Statistics
Read error : 0
Jitter error (maybe fixed) : 0
Retry sector count : 0
Damaged sector count : 0
Track 02
Filename : /Volumes/Andy HD2/XLD/Mozart - Cosi Fan Tutte (Yannick Nezet-Seguini)/cd3/03.02 Mozart, Wolfgang Amadeus - Mozart. CosiFan Tutte - Act 2. Donne Mie, La Fate A Tanti.flac
CRC32 hash : 46A81309
CRC32 hash (skip zero) : 58B5D9C0
AccurateRip v1 signature : 32DED9BA
AccurateRip v2 signature : B5216578
->Accurately ripped (v2, confidence 6/6)
Statistics
Read error : 0
Jitter error (maybe fixed) : 0
Retry sector count : 0
Damaged sector count : 0
Track 03
Filename : /Volumes/Andy HD2/XLD/Mozart - Cosi Fan Tutte (Yannick Nezet-Seguini)/cd3/03.03 Mozart, Wolfgang Amadeus - Mozart. CosiFan Tutte - Act 2. In Qual Fiero Contrasto.flac
CRC32 hash : 463AD4E5
CRC32 hash (skip zero) : F919352D
AccurateRip v1 signature : E4AAEA26
AccurateRip v2 signature : 5CEABFA8
->Accurately ripped (v2, confidence 6/6)
Statistics
Read error : 0
Jitter error (maybe fixed) : 0
Retry sector count : 0
Damaged sector count : 0
Track 04
Filename : /Volumes/Andy HD2/XLD/Mozart - Cosi Fan Tutte (Yannick Nezet-Seguini)/cd3/03.04 Mozart, Wolfgang Amadeus - Mozart. CosiFan Tutte - Act 2. Tradito, Schernito.flac
CRC32 hash : 7216C125
CRC32 hash (skip zero) : 7CCD3A02
AccurateRip v1 signature : 84164B10
AccurateRip v2 signature : 5A17B065
->Accurately ripped (v2, confidence 6/6)
Statistics
Read error : 0
Jitter error (maybe fixed) : 0
Retry sector count : 0
Damaged sector count : 0
Track 05
Filename : /Volumes/Andy HD2/XLD/Mozart - Cosi Fan Tutte (Yannick Nezet-Seguini)/cd3/03.05 Mozart, Wolfgang Amadeus - Mozart. CosiFan Tutte - Act 2. Bravo, Questa E Costanza.flac
CRC32 hash : 719C3622
CRC32 hash (skip zero) : B29BFFD9
AccurateRip v1 signature : 13F7451E
AccurateRip v2 signature : 0032C183
->Accurately ripped (v2, confidence 6/6)
Statistics
Read error : 0
Jitter error (maybe fixed) : 0
Retry sector count : 0
Damaged sector count : 0
Track 06
Filename : /Volumes/Andy HD2/XLD/Mozart - Cosi Fan Tutte (Yannick Nezet-Seguini)/cd3/03.06 Mozart, Wolfgang Amadeus - Mozart. CosiFan Tutte - Act 2. Ora Vedo Che Siete.flac
CRC32 hash : F31B7DE4
CRC32 hash (skip zero) : DC32B546
AccurateRip v1 signature : 9858B5F1
AccurateRip v2 signature : B5148E7A
->Accurately ripped (v2, confidence 6/6)
Statistics
Read error : 0
Jitter error (maybe fixed) : 0
Retry sector count : 0
Damaged sector count : 0
Track 07
Filename : /Volumes/Andy HD2/XLD/Mozart - Cosi Fan Tutte (Yannick Nezet-Seguini)/cd3/03.07 Mozart, Wolfgang Amadeus - Mozart. CosiFan Tutte - Act 2. E Amore Un Ladroncello.flac
CRC32 hash : 0D62A2EF
CRC32 hash (skip zero) : 69C458CD
AccurateRip v1 signature : 38A09EF5
AccurateRip v2 signature : 1E4C496A
->Accurately ripped (v2, confidence 6/6)
Statistics
Read error : 0
Jitter error (maybe fixed) : 0
Retry sector count : 0
Damaged sector count : 0
Track 08
Filename : /Volumes/Andy HD2/XLD/Mozart - Cosi Fan Tutte (Yannick Nezet-Seguini)/cd3/03.08 Mozart, Wolfgang Amadeus - Mozart. CosiFan Tutte - Act 2. Come Tutto Congiura.flac
CRC32 hash : 7303FF4F
CRC32 hash (skip zero) : 1BBFA59F
AccurateRip v1 signature : F4A204A1
AccurateRip v2 signature : 131724E8
->Accurately ripped (v2, confidence 6/6)
Statistics
Read error : 0
Jitter error (maybe fixed) : 0
Retry sector count : 0
Damaged sector count : 0
Track 09
Filename : /Volumes/Andy HD2/XLD/Mozart - Cosi Fan Tutte (Yannick Nezet-Seguini)/cd3/03.09 Mozart, Wolfgang Amadeus - Mozart. CosiFan Tutte - Act 2. Fra Gli Amplessi In Pochi Istanti.flac
CRC32 hash : BE1D6F79
CRC32 hash (skip zero) : C282DC0C
AccurateRip v1 signature : 892015F2
AccurateRip v2 signature : 58316140
->Accurately ripped (v2, confidence 6/6)
Statistics
Read error : 0
Jitter error (maybe fixed) : 0
Retry sector count : 0
Damaged sector count : 0
Track 10
Filename : /Volumes/Andy HD2/XLD/Mozart - Cosi Fan Tutte (Yannick Nezet-Seguini)/cd3/03.10 Mozart, Wolfgang Amadeus - Mozart. CosiFan Tutte - Act 2. Ah, Poveretto Me.flac
CRC32 hash : FD80713C
CRC32 hash (skip zero) : 359F8CE2
AccurateRip v1 signature : BAC4ABD3
AccurateRip v2 signature : E2AA89F0
->Accurately ripped (v2, confidence 6/6)
Statistics
Read error : 0
Jitter error (maybe fixed) : 0
Retry sector count : 0
Damaged sector count : 0
Track 11
Filename : /Volumes/Andy HD2/XLD/Mozart - Cosi Fan Tutte (Yannick Nezet-Seguini)/cd3/03.11 Mozart, Wolfgang Amadeus - Mozart. CosiFan Tutte - Act 2. Tutti Accusan Le Donne.flac
CRC32 hash : C9BCB799
CRC32 hash (skip zero) : 3FAC82AF
AccurateRip v1 signature : 3A4D237F
AccurateRip v2 signature : 31D41FDE
->Accurately ripped (v2, confidence 6/6)
Statistics
Read error : 0
Jitter error (maybe fixed) : 0
Retry sector count : 0
Damaged sector count : 0
Track 12
Filename : /Volumes/Andy HD2/XLD/Mozart - Cosi Fan Tutte (Yannick Nezet-Seguini)/cd3/03.12 Mozart, Wolfgang Amadeus - Mozart. CosiFan Tutte - Act 2. Vittoria, Padroncini!.flac
CRC32 hash : 5BBD1AE4
CRC32 hash (skip zero) : 4719862F
AccurateRip v1 signature : F9B1EB86
AccurateRip v2 signature : E75AC38F
->Accurately ripped (v2, confidence 6/6)
Statistics
Read error : 0
Jitter error (maybe fixed) : 0
Retry sector count : 0
Damaged sector count : 0
Track 13
Filename : /Volumes/Andy HD2/XLD/Mozart - Cosi Fan Tutte (Yannick Nezet-Seguini)/cd3/03.13 Mozart, Wolfgang Amadeus - Mozart. CosiFan Tutte - Act 2. Fate Presto, O Cari Amici.flac
CRC32 hash : 76A33113
CRC32 hash (skip zero) : 4BDD945C
AccurateRip v1 signature : 59E64BF2
AccurateRip v2 signature : 212DD203
->Accurately ripped (v2, confidence 6/6)
Statistics
Read error : 0
Jitter error (maybe fixed) : 0
Retry sector count : 0
Damaged sector count : 0
No errors occurred
End of status report

Содержание индексной карты (.CUE)

TITLE "Così Fan Tutte [Yannick Nézet-Séguin - Chamber Orchestra Of Europe & Vocalensemble Rastatt]"
PERFORMER "Mozart, Wolfgang Amadeus"
CATALOG 0028947906421
REM GENRE "Classical"
REM DATE "2013"
REM DISCNUMBER 1
REM TOTALDISCS 3
REM DISCID 13107323
FILE "01.01 Mozart, Wolfgang Amadeus - Mozart. CosiFan Tutte - Overture.flac" WAVE
TRACK 01 AUDIO
TITLE "Mozart: Così Fan Tutte - Overture"
PERFORMER "Mozart, Wolfgang Amadeus"
SONGWRITER "Wolfgang Amadeus Mozart"
ISRC DEN961230901
INDEX 01 00:00:00
FILE "01.02 Mozart, Wolfgang Amadeus - Mozart. CosiFan Tutte - Act 1. La Mia Dorabella.flac" WAVE
TRACK 02 AUDIO
TITLE "Mozart: Così Fan Tutte - Act 1: La Mia Dorabella"
PERFORMER "Mozart, Wolfgang Amadeus"
SONGWRITER "Wolfgang Amadeus Mozart"
ISRC DEN961230902
INDEX 01 00:00:00
FILE "01.03 Mozart, Wolfgang Amadeus - Mozart. CosiFan Tutte - Act 1. Fuor La Spada.flac" WAVE
TRACK 03 AUDIO
TITLE "Mozart: Così Fan Tutte - Act 1: Fuor La Spada"
PERFORMER "Mozart, Wolfgang Amadeus"
SONGWRITER "Wolfgang Amadeus Mozart"
ISRC DEN961230903
INDEX 01 00:00:00
FILE "01.04 Mozart, Wolfgang Amadeus - Mozart. CosiFan Tutte - Act 1. E La Fede Delle Femminine.flac" WAVE
TRACK 04 AUDIO
TITLE "Mozart: Così Fan Tutte - Act 1: E La Fede Delle Femminine"
PERFORMER "Mozart, Wolfgang Amadeus"
SONGWRITER "Wolfgang Amadeus Mozart"
ISRC DEN961230904
INDEX 01 00:00:00
FILE "01.05 Mozart, Wolfgang Amadeus - Mozart. CosiFan Tutte - Act 1. Scioccerie Di Poeti.flac" WAVE
TRACK 05 AUDIO
TITLE "Mozart: Così Fan Tutte - Act 1: Scioccerie Di Poeti"
PERFORMER "Mozart, Wolfgang Amadeus"
SONGWRITER "Wolfgang Amadeus Mozart"
ISRC DEN961230905
INDEX 01 00:00:00
FILE "01.06 Mozart, Wolfgang Amadeus - Mozart. CosiFan Tutte - Act 1. Una Bella Serenata.flac" WAVE
TRACK 06 AUDIO
TITLE "Mozart: Così Fan Tutte - Act 1: Una Bella Serenata"
PERFORMER "Mozart, Wolfgang Amadeus"
SONGWRITER "Wolfgang Amadeus Mozart"
ISRC DEN961230906
INDEX 01 00:00:00
FILE "01.07 Mozart, Wolfgang Amadeus - Mozart. CosiFan Tutte - Act 1. Ah, Guarda, Sorella.flac" WAVE
TRACK 07 AUDIO
TITLE "Mozart: Così Fan Tutte - Act 1: Ah, Guarda, Sorella"
PERFORMER "Mozart, Wolfgang Amadeus"
SONGWRITER "Wolfgang Amadeus Mozart"
ISRC DEN961230907
INDEX 01 00:00:00
FILE "01.08 Mozart, Wolfgang Amadeus - Mozart. CosiFan Tutte - Act 1. Mi Par Che Stamattina.flac" WAVE
TRACK 08 AUDIO
TITLE "Mozart: Così Fan Tutte - Act 1: Mi Par Che Stamattina"
PERFORMER "Mozart, Wolfgang Amadeus"
SONGWRITER "Wolfgang Amadeus Mozart"
ISRC DEN961230908
INDEX 01 00:00:00
FILE "01.09 Mozart, Wolfgang Amadeus - Mozart. CosiFan Tutte - Act 1. Vorrei Dir, E Cor Non Ho.flac" WAVE
TRACK 09 AUDIO
TITLE "Mozart: Così Fan Tutte - Act 1: Vorrei Dir, E Cor Non Ho"
PERFORMER "Mozart, Wolfgang Amadeus"
SONGWRITER "Wolfgang Amadeus Mozart"
ISRC DEN961230909
INDEX 01 00:00:00
FILE "01.10 Mozart, Wolfgang Amadeus - Mozart. CosiFan Tutte - Act 1. Stelle! Per Carità, Signor Alfonso.flac" WAVE
TRACK 10 AUDIO
TITLE "Mozart: Così Fan Tutte - Act 1: Stelle! Per Carità, Signor Alfonso"
PERFORMER "Mozart, Wolfgang Amadeus"
SONGWRITER "Wolfgang Amadeus Mozart"
ISRC DEN961230910
INDEX 01 00:00:00
FILE "01.11 Mozart, Wolfgang Amadeus - Mozart. CosiFan Tutte - Act 1. Sento, Oh Dio, Che Questo Piede.flac" WAVE
TRACK 11 AUDIO
TITLE "Mozart: Così Fan Tutte - Act 1: Sento, Oh Dio, Che Questo Piede"
PERFORMER "Mozart, Wolfgang Amadeus"
SONGWRITER "Wolfgang Amadeus Mozart"
ISRC DEN961230911
INDEX 01 00:00:00
FILE "01.12 Mozart, Wolfgang Amadeus - Mozart. CosiFan Tutte - Act 1. Non Piangere, Idol Mio!.flac" WAVE
TRACK 12 AUDIO
TITLE "Mozart: Così Fan Tutte - Act 1: Non Piangere, Idol Mio!"
PERFORMER "Mozart, Wolfgang Amadeus"
SONGWRITER "Wolfgang Amadeus Mozart"
ISRC DEN961230912
INDEX 01 00:00:00
FILE "01.13 Mozart, Wolfgang Amadeus - Mozart. CosiFan Tutte - Act 1. Al Fato Dan Legge.flac" WAVE
TRACK 13 AUDIO
TITLE "Mozart: Così Fan Tutte - Act 1: Al Fato Dan Legge"
PERFORMER "Mozart, Wolfgang Amadeus"
SONGWRITER "Wolfgang Amadeus Mozart"
ISRC DEN961230913
INDEX 01 00:00:00
FILE "01.14 Mozart, Wolfgang Amadeus - Mozart. CosiFan Tutte - Act 1. La Commedia E Graziosa.flac" WAVE
TRACK 14 AUDIO
TITLE "Mozart: Così Fan Tutte - Act 1: La Commedia È Graziosa"
PERFORMER "Mozart, Wolfgang Amadeus"
SONGWRITER "Wolfgang Amadeus Mozart"
ISRC DEN961230914
INDEX 01 00:00:00
FILE "01.15 Mozart, Wolfgang Amadeus - Mozart. CosiFan Tutte - Act 1. Bella Vita Militar!.flac" WAVE
TRACK 15 AUDIO
TITLE "Mozart: Così Fan Tutte - Act 1: Bella Vita Militar!"
PERFORMER "Mozart, Wolfgang Amadeus"
SONGWRITER "Wolfgang Amadeus Mozart"
ISRC DEN961230915
INDEX 01 00:00:00
FILE "01.16 Mozart, Wolfgang Amadeus - Mozart. CosiFan Tutte - Act 1. Non Ve Piu Tempo, Amici.flac" WAVE
TRACK 16 AUDIO
TITLE "Mozart: Così Fan Tutte - Act 1: Non Vè Più Tempo, Amici"
PERFORMER "Mozart, Wolfgang Amadeus"
SONGWRITER "Wolfgang Amadeus Mozart"
ISRC DEN961230916
INDEX 01 00:00:00
FILE "01.17 Mozart, Wolfgang Amadeus - Mozart. CosiFan Tutte - Act 1. Di Scrivermi Ogni Giorno.flac" WAVE
TRACK 17 AUDIO
TITLE "Mozart: Così Fan Tutte - Act 1: Di Scrivermi Ogni Giorno"
PERFORMER "Mozart, Wolfgang Amadeus"
SONGWRITER "Wolfgang Amadeus Mozart"
ISRC DEN961230917
INDEX 01 00:00:00
FILE "01.18 Mozart, Wolfgang Amadeus - Mozart. CosiFan Tutte - Act 1. Bella Vita Militar!.flac" WAVE
TRACK 18 AUDIO
TITLE "Mozart: Così Fan Tutte - Act 1: Bella Vita Militar!"
PERFORMER "Mozart, Wolfgang Amadeus"
SONGWRITER "Wolfgang Amadeus Mozart"
ISRC DEN961230918
INDEX 01 00:00:00
FILE "01.19 Mozart, Wolfgang Amadeus - Mozart. CosiFan Tutte - Act 1. Dove Son?.flac" WAVE
TRACK 19 AUDIO
TITLE "Mozart: Così Fan Tutte - Act 1: Dove Son?"
PERFORMER "Mozart, Wolfgang Amadeus"
SONGWRITER "Wolfgang Amadeus Mozart"
ISRC DEN961230919
INDEX 01 00:00:00
FILE "01.20 Mozart, Wolfgang Amadeus - Mozart. CosiFan Tutte - Act 1. Soave Sia Il Vento.flac" WAVE
TRACK 20 AUDIO
TITLE "Mozart: Così Fan Tutte - Act 1: Soave Sia Il Vento"
PERFORMER "Mozart, Wolfgang Amadeus"
SONGWRITER "Wolfgang Amadeus Mozart"
ISRC DEN961230920
INDEX 01 00:00:00
FILE "01.21 Mozart, Wolfgang Amadeus - Mozart. CosiFan Tutte - Act 1. Non Son Cattivo Comico.flac" WAVE
TRACK 21 AUDIO
TITLE "Mozart: Così Fan Tutte - Act 1: Non Son Cattivo Comico"
PERFORMER "Mozart, Wolfgang Amadeus"
SONGWRITER "Wolfgang Amadeus Mozart"
ISRC DEN961230921
INDEX 01 00:00:00
FILE "01.22 Mozart, Wolfgang Amadeus - Mozart. CosiFan Tutte - Act 1. Che Vita Maledetta.flac" WAVE
TRACK 22 AUDIO
TITLE "Mozart: Così Fan Tutte - Act 1: Che Vita Maledetta"
PERFORMER "Mozart, Wolfgang Amadeus"
SONGWRITER "Wolfgang Amadeus Mozart"
ISRC DEN961230922
INDEX 01 00:00:00
FILE "01.23 Mozart, Wolfgang Amadeus - Mozart. CosiFan Tutte - Act 1. Ah, Scostati!.flac" WAVE
TRACK 23 AUDIO
TITLE "Mozart: Così Fan Tutte - Act 1: Ah, Scostati!"
PERFORMER "Mozart, Wolfgang Amadeus"
SONGWRITER "Wolfgang Amadeus Mozart"
ISRC DEN961230923
INDEX 01 00:00:00
FILE "01.24 Mozart, Wolfgang Amadeus - Mozart. CosiFan Tutte - Act 1. Smanie Implacabili.flac" WAVE
TRACK 24 AUDIO
TITLE "Mozart: Così Fan Tutte - Act 1: Smanie Implacabili"
PERFORMER "Mozart, Wolfgang Amadeus"
SONGWRITER "Wolfgang Amadeus Mozart"
ISRC DEN961230924
INDEX 01 00:00:00
FILE "01.25 Mozart, Wolfgang Amadeus - Mozart. CosiFan Tutte - Act 1. Signora Dorabella.flac" WAVE
TRACK 25 AUDIO
TITLE "Mozart: Così Fan Tutte - Act 1: Signora Dorabella"
PERFORMER "Mozart, Wolfgang Amadeus"
SONGWRITER "Wolfgang Amadeus Mozart"
ISRC DEN961230925
INDEX 01 00:00:00
FILE "01.26 Mozart, Wolfgang Amadeus - Mozart. CosiFan Tutte - Act 1. In Uomini, In Soldati.flac" WAVE
TRACK 26 AUDIO
TITLE "Mozart: Così Fan Tutte - Act 1: In Uomini, In Soldati"
PERFORMER "Mozart, Wolfgang Amadeus"
SONGWRITER "Wolfgang Amadeus Mozart"
ISRC DEN961230926
INDEX 01 00:00:00
FILE "01.27 Mozart, Wolfgang Amadeus - Mozart. CosiFan Tutte - Act 1. Che Silenzio!.flac" WAVE
TRACK 27 AUDIO
TITLE "Mozart: Così Fan Tutte - Act 1: Che Silenzio!"
PERFORMER "Mozart, Wolfgang Amadeus"
SONGWRITER "Wolfgang Amadeus Mozart"
ISRC DEN961230927
INDEX 01 00:00:00
FILE "01.28 Mozart, Wolfgang Amadeus - Mozart. CosiFan Tutte - Act 1. Alla Bella Despinetta.flac" WAVE
TRACK 28 AUDIO
TITLE "Mozart: Così Fan Tutte - Act 1: Alla Bella Despinetta"
PERFORMER "Mozart, Wolfgang Amadeus"
SONGWRITER "Wolfgang Amadeus Mozart"
ISRC DEN961230928
INDEX 01 00:00:00
FILE "01.29 Mozart, Wolfgang Amadeus - Mozart. CosiFan Tutte - Act 1. Che Sussurro! Che Strepito!.flac" WAVE
TRACK 29 AUDIO
TITLE "Mozart: Così Fan Tutte - Act 1: Che Sussurro! Che Strepito!"
PERFORMER "Mozart, Wolfgang Amadeus"
SONGWRITER "Wolfgang Amadeus Mozart"
ISRC DEN961230929
INDEX 01 00:00:00
FILE "01.30 Mozart, Wolfgang Amadeus - Mozart. CosiFan Tutte - Act 1. Come Scoglio.flac" WAVE
TRACK 30 AUDIO
TITLE "Mozart: Così Fan Tutte - Act 1: Come Scoglio"
PERFORMER "Mozart, Wolfgang Amadeus"
SONGWRITER "Wolfgang Amadeus Mozart"
ISRC DEN961230930
INDEX 01 00:00:00
FILE "01.31 Mozart, Wolfgang Amadeus - Mozart. CosiFan Tutte - Act 1. Ah, Non Partite.flac" WAVE
TRACK 31 AUDIO
TITLE "Mozart: Così Fan Tutte - Act 1: Ah, Non Partite"
PERFORMER "Mozart, Wolfgang Amadeus"
SONGWRITER "Wolfgang Amadeus Mozart"
ISRC DEN961230931
INDEX 01 00:00:00
FILE "01.32 Mozart, Wolfgang Amadeus - Mozart. CosiFan Tutte - Act 1. Non Siate Ritrosi.flac" WAVE
TRACK 32 AUDIO
TITLE "Mozart: Così Fan Tutte - Act 1: Non Siate Ritrosi"
PERFORMER "Mozart, Wolfgang Amadeus"
SONGWRITER "Wolfgang Amadeus Mozart"
ISRC DEN961230932
INDEX 01 00:00:00
FILE "01.33 Mozart, Wolfgang Amadeus - Mozart. CosiFan Tutte - Act 1. E Voi Ridete?.flac" WAVE
TRACK 33 AUDIO
TITLE "Mozart: Così Fan Tutte - Act 1: E Voi Ridete?"
PERFORMER "Mozart, Wolfgang Amadeus"
SONGWRITER "Wolfgang Amadeus Mozart"
ISRC DEN961230933
INDEX 01 00:00:00
FILE "01.34 Mozart, Wolfgang Amadeus - Mozart. CosiFan Tutte - Act 1. Si Può Sapere Un Poco La Cagion Di Quel Riso?.flac" WAVE
TRACK 34 AUDIO
TITLE "Mozart: Così Fan Tutte - Act 1: Si Può Sapere Un Poco La Cagion Di Quel Riso?"
PERFORMER "Mozart, Wolfgang Amadeus"
SONGWRITER "Wolfgang Amadeus Mozart"
ISRC DEN961230934
INDEX 01 00:00:00
FILE "01.35 Mozart, Wolfgang Amadeus - Mozart. CosiFan Tutte - Act 1. Un'Aura Amorosa.flac" WAVE
TRACK 35 AUDIO
TITLE "Mozart: Così Fan Tutte - Act 1: Un'Aura Amorosa"
PERFORMER "Mozart, Wolfgang Amadeus"
SONGWRITER "Wolfgang Amadeus Mozart"
ISRC DEN961230935
INDEX 01 00:00:00
TITLE "Così Fan Tutte [Yannick Nézet-Séguin - Chamber Orchestra Of Europe & Vocalensemble Rastatt]"
PERFORMER "Mozart, Wolfgang Amadeus"
CATALOG 0028947906438
REM GENRE "Classical"
REM DATE "2013"
REM DISCNUMBER 2
REM TOTALDISCS 3
REM DISCID D50D6F0F
FILE "02.01 Mozart, Wolfgang Amadeus - Mozart. CosiFan Tutte - Act 1. Oh, La Saria Da Ridere!.flac" WAVE
TRACK 01 AUDIO
TITLE "Mozart: Così Fan Tutte - Act 1: Oh, La Saria Da Ridere!"
PERFORMER "Mozart, Wolfgang Amadeus"
SONGWRITER "Wolfgang Amadeus Mozart"
ISRC DEN961230936
INDEX 01 00:00:00
FILE "02.02 Mozart, Wolfgang Amadeus - Mozart. CosiFan Tutte - Act 1. Ah, Che Tutta In Un Momento.flac" WAVE
TRACK 02 AUDIO
TITLE "Mozart: Così Fan Tutte - Act 1: Ah, Che Tutta In Un Momento"
PERFORMER "Mozart, Wolfgang Amadeus"
SONGWRITER "Wolfgang Amadeus Mozart"
ISRC DEN961230937
INDEX 01 00:00:00
FILE "02.03 Mozart, Wolfgang Amadeus - Mozart. CosiFan Tutte - Act 2. Andate Là, Che Siete Due Bizzarre Ragazze.flac" WAVE
TRACK 03 AUDIO
TITLE "Mozart: Così Fan Tutte - Act 2: Andate Là, Che Siete Due Bizzarre Ragazze"
PERFORMER "Mozart, Wolfgang Amadeus"
SONGWRITER "Wolfgang Amadeus Mozart"
ISRC DEN961230938
INDEX 01 00:00:00
FILE "02.04 Mozart, Wolfgang Amadeus - Mozart. CosiFan Tutte - Act 2. Una Donna A Quindici Anni.flac" WAVE
TRACK 04 AUDIO
TITLE "Mozart: Così Fan Tutte - Act 2: Una Donna A Quindici Anni"
PERFORMER "Mozart, Wolfgang Amadeus"
SONGWRITER "Wolfgang Amadeus Mozart"
ISRC DEN961230939
INDEX 01 00:00:00
FILE "02.05 Mozart, Wolfgang Amadeus - Mozart. CosiFan Tutte - Act 2. Sorella, Cosa Dici?.flac" WAVE
TRACK 05 AUDIO
TITLE "Mozart: Così Fan Tutte - Act 2: Sorella, Cosa Dici?"
PERFORMER "Mozart, Wolfgang Amadeus"
SONGWRITER "Wolfgang Amadeus Mozart"
ISRC DEN961230940
INDEX 01 00:00:00
FILE "02.06 Mozart, Wolfgang Amadeus - Mozart. CosiFan Tutte - Act 2. Prenderò Quel Brunettino.flac" WAVE
TRACK 06 AUDIO
TITLE "Mozart: Così Fan Tutte - Act 2: Prenderò Quel Brunettino"
PERFORMER "Mozart, Wolfgang Amadeus"
SONGWRITER "Wolfgang Amadeus Mozart"
ISRC DEN961230941
INDEX 01 00:00:00
FILE "02.07 Mozart, Wolfgang Amadeus - Mozart. CosiFan Tutte - Act 2. Ah, Correte Al Giardino.flac" WAVE
TRACK 07 AUDIO
TITLE "Mozart: Così Fan Tutte - Act 2: Ah, Correte Al Giardino"
PERFORMER "Mozart, Wolfgang Amadeus"
SONGWRITER "Wolfgang Amadeus Mozart"
ISRC DEN961230942
INDEX 01 00:00:00
FILE "02.08 Mozart, Wolfgang Amadeus - Mozart. CosiFan Tutte - Act 2. Secondate, Aurette Amiche.flac" WAVE
TRACK 08 AUDIO
TITLE "Mozart: Così Fan Tutte - Act 2: Secondate, Aurette Amiche"
PERFORMER "Mozart, Wolfgang Amadeus"
SONGWRITER "Wolfgang Amadeus Mozart"
ISRC DEN961230943
INDEX 01 00:00:00
FILE "02.09 Mozart, Wolfgang Amadeus - Mozart. CosiFan Tutte - Act 2. Il Tutto Deponete Sopra Quei Tavolini.flac" WAVE
TRACK 09 AUDIO
TITLE "Mozart: Così Fan Tutte - Act 2: Il Tutto Deponete Sopra Quei Tavolini"
PERFORMER "Mozart, Wolfgang Amadeus"
SONGWRITER "Wolfgang Amadeus Mozart"
ISRC DEN961230944
INDEX 01 00:00:00
FILE "02.10 Mozart, Wolfgang Amadeus - Mozart. CosiFan Tutte - Act 2. La Mano A Me Date.flac" WAVE
TRACK 10 AUDIO
TITLE "Mozart: Così Fan Tutte - Act 2: La Mano A Me Date"
PERFORMER "Mozart, Wolfgang Amadeus"
SONGWRITER "Wolfgang Amadeus Mozart"
ISRC DEN961230945
INDEX 01 00:00:00
FILE "02.11 Mozart, Wolfgang Amadeus - Mozart. CosiFan Tutte - Act 2. Oh Che Bella Giornata!.flac" WAVE
TRACK 11 AUDIO
TITLE "Mozart: Così Fan Tutte - Act 2: Oh Che Bella Giornata!"
PERFORMER "Mozart, Wolfgang Amadeus"
SONGWRITER "Wolfgang Amadeus Mozart"
ISRC DEN961230946
INDEX 01 00:00:00
FILE "02.12 Mozart, Wolfgang Amadeus - Mozart. CosiFan Tutte - Act 2. Il Core VI Dono.flac" WAVE
TRACK 12 AUDIO
TITLE "Mozart: Così Fan Tutte - Act 2: Il Core VI Dono"
PERFORMER "Mozart, Wolfgang Amadeus"
SONGWRITER "Wolfgang Amadeus Mozart"
ISRC DEN961230947
INDEX 01 00:00:00
FILE "02.13 Mozart, Wolfgang Amadeus - Mozart. CosiFan Tutte - Act 2. Barbara! Perche Fuggi?.flac" WAVE
TRACK 13 AUDIO
TITLE "Mozart: Così Fan Tutte - Act 2: Barbara! Perché Fuggi?"
PERFORMER "Mozart, Wolfgang Amadeus"
SONGWRITER "Wolfgang Amadeus Mozart"
ISRC DEN961230948
INDEX 01 00:00:00
FILE "02.14 Mozart, Wolfgang Amadeus - Mozart. CosiFan Tutte - Act 2. Ei Parte...Senti...Ah No!.flac" WAVE
TRACK 14 AUDIO
TITLE "Mozart: Così Fan Tutte - Act 2: Ei Parte...Senti...Ah No!"
PERFORMER "Mozart, Wolfgang Amadeus"
SONGWRITER "Wolfgang Amadeus Mozart"
ISRC DEN961230949
INDEX 01 00:00:00
FILE "02.15 Mozart, Wolfgang Amadeus - Mozart. CosiFan Tutte - Act 2. Per Pietà, Ben Mio, Perdona.flac" WAVE
TRACK 15 AUDIO
TITLE "Mozart: Così Fan Tutte - Act 2: Per Pietà, Ben Mio, Perdona"
PERFORMER "Mozart, Wolfgang Amadeus"
SONGWRITER "Wolfgang Amadeus Mozart"
ISRC DEN961230950
INDEX 01 00:00:00
TITLE "Così Fan Tutte [Yannick Nézet-Séguin - Chamber Orchestra Of Europe & Vocalensemble Rastatt]"
PERFORMER "Mozart, Wolfgang Amadeus"
CATALOG 0028947906445
REM GENRE "Classical"
REM DATE "2013"
REM DISCNUMBER 3
REM TOTALDISCS 3
REM DISCID CA0BD90D
FILE "03.01 Mozart, Wolfgang Amadeus - Mozart. CosiFan Tutte - Act 2. Amico, Abbiamo Vinto!.flac" WAVE
TRACK 01 AUDIO
TITLE "Mozart: Così Fan Tutte - Act 2: Amico, Abbiamo Vinto!"
PERFORMER "Mozart, Wolfgang Amadeus"
SONGWRITER "Wolfgang Amadeus Mozart"
ISRC DEN961230951
INDEX 01 00:00:00
FILE "03.02 Mozart, Wolfgang Amadeus - Mozart. CosiFan Tutte - Act 2. Donne Mie, La Fate A Tanti.flac" WAVE
TRACK 02 AUDIO
TITLE "Mozart: Così Fan Tutte - Act 2: Donne Mie, La Fate A Tanti"
PERFORMER "Mozart, Wolfgang Amadeus"
SONGWRITER "Wolfgang Amadeus Mozart"
ISRC DEN961230952
INDEX 01 00:00:00
FILE "03.03 Mozart, Wolfgang Amadeus - Mozart. CosiFan Tutte - Act 2. In Qual Fiero Contrasto.flac" WAVE
TRACK 03 AUDIO
TITLE "Mozart: Così Fan Tutte - Act 2: In Qual Fiero Contrasto"
PERFORMER "Mozart, Wolfgang Amadeus"
SONGWRITER "Wolfgang Amadeus Mozart"
ISRC DEN961230953
INDEX 01 00:00:00
FILE "03.04 Mozart, Wolfgang Amadeus - Mozart. CosiFan Tutte - Act 2. Tradito, Schernito.flac" WAVE
TRACK 04 AUDIO
TITLE "Mozart: Così Fan Tutte - Act 2: Tradito, Schernito"
PERFORMER "Mozart, Wolfgang Amadeus"
SONGWRITER "Wolfgang Amadeus Mozart"
ISRC DEN961230954
INDEX 01 00:00:00
FILE "03.05 Mozart, Wolfgang Amadeus - Mozart. CosiFan Tutte - Act 2. Bravo, Questa E Costanza.flac" WAVE
TRACK 05 AUDIO
TITLE "Mozart: Così Fan Tutte - Act 2: Bravo, Questa È Costanza"
PERFORMER "Mozart, Wolfgang Amadeus"
SONGWRITER "Wolfgang Amadeus Mozart"
ISRC DEN961230955
INDEX 01 00:00:00
FILE "03.06 Mozart, Wolfgang Amadeus - Mozart. CosiFan Tutte - Act 2. Ora Vedo Che Siete.flac" WAVE
TRACK 06 AUDIO
TITLE "Mozart: Così Fan Tutte - Act 2: Ora Vedo Che Siete"
PERFORMER "Mozart, Wolfgang Amadeus"
SONGWRITER "Wolfgang Amadeus Mozart"
ISRC DEN961230956
INDEX 01 00:00:00
FILE "03.07 Mozart, Wolfgang Amadeus - Mozart. CosiFan Tutte - Act 2. E Amore Un Ladroncello.flac" WAVE
TRACK 07 AUDIO
TITLE "Mozart: Così Fan Tutte - Act 2: E Amore Un Ladroncello"
PERFORMER "Mozart, Wolfgang Amadeus"
SONGWRITER "Wolfgang Amadeus Mozart"
ISRC DEN961230957
INDEX 01 00:00:00
FILE "03.08 Mozart, Wolfgang Amadeus - Mozart. CosiFan Tutte - Act 2. Come Tutto Congiura.flac" WAVE
TRACK 08 AUDIO
TITLE "Mozart: Così Fan Tutte - Act 2: Come Tutto Congiura"
PERFORMER "Mozart, Wolfgang Amadeus"
SONGWRITER "Wolfgang Amadeus Mozart"
ISRC DEN961230958
INDEX 01 00:00:00
FILE "03.09 Mozart, Wolfgang Amadeus - Mozart. CosiFan Tutte - Act 2. Fra Gli Amplessi In Pochi Istanti.flac" WAVE
TRACK 09 AUDIO
TITLE "Mozart: Così Fan Tutte - Act 2: Fra Gli Amplessi In Pochi Istanti"
PERFORMER "Mozart, Wolfgang Amadeus"
SONGWRITER "Wolfgang Amadeus Mozart"
ISRC DEN961230959
INDEX 01 00:00:00
FILE "03.10 Mozart, Wolfgang Amadeus - Mozart. CosiFan Tutte - Act 2. Ah, Poveretto Me.flac" WAVE
TRACK 10 AUDIO
TITLE "Mozart: Così Fan Tutte - Act 2: Ah, Poveretto Me"
PERFORMER "Mozart, Wolfgang Amadeus"
SONGWRITER "Wolfgang Amadeus Mozart"
ISRC DEN961230960
INDEX 01 00:00:00
FILE "03.11 Mozart, Wolfgang Amadeus - Mozart. CosiFan Tutte - Act 2. Tutti Accusan Le Donne.flac" WAVE
TRACK 11 AUDIO
TITLE "Mozart: Così Fan Tutte - Act 2: Tutti Accusan Le Donne"
PERFORMER "Mozart, Wolfgang Amadeus"
SONGWRITER "Wolfgang Amadeus Mozart"
ISRC DEN961230961
INDEX 01 00:00:00
FILE "03.12 Mozart, Wolfgang Amadeus - Mozart. CosiFan Tutte - Act 2. Vittoria, Padroncini!.flac" WAVE
TRACK 12 AUDIO
TITLE "Mozart: Così Fan Tutte - Act 2: Vittoria, Padroncini!"
PERFORMER "Mozart, Wolfgang Amadeus"
SONGWRITER "Wolfgang Amadeus Mozart"
ISRC DEN961230962
INDEX 01 00:00:00
FILE "03.13 Mozart, Wolfgang Amadeus - Mozart. CosiFan Tutte - Act 2. Fate Presto, O Cari Amici.flac" WAVE
TRACK 13 AUDIO
TITLE "Mozart: Così Fan Tutte - Act 2: Fate Presto, O Cari Amici"
PERFORMER "Mozart, Wolfgang Amadeus"
SONGWRITER "Wolfgang Amadeus Mozart"
ISRC DEN961230963
INDEX 01 00:00:00

Немного про Yannick Nezet-Seguin

Yannick Nezet-Seguin – канадский пианист и дирижер, обладатель Ордена Канады.
Он принял решение стать дирижером еще в возрасте 10 лет. Музыкант закончил Квебекскую консерваторию театра и музыки по классу фортепиано. Своими наставниками он считает Карло Марию Джулини и Шарля Дютуа. В 2000 году Янник Незе-Сеген впервые дирижировал оперной постановкой. В том же году он получил назначение на пост художественного руководителя и главного дирижера Столичного оркестра Большого Монреаля. В 2008 году он сменил Валерия Гергиева на должности главного дирижера филармонического оркестра Роттердама. Кроме того, Янник является музыкальным руководителем оркестра Филадельфии и главным приглашенным дирижером филармонического оркестра Лондона.
Янник – обладатель канадской музыкальной премии «Опус», Премии Вирджинии Паркер, Премии Британского Королевского филармонического общества и других наград.
Учился у Карло Марии Джулини, которого — наравне с Шарлем Дютуа — считает своим наставником.
Чаще всего выступает как оперный дирижёр. Дирижировал также симфониями Бетховена, Брукнера, Малера, Немецким реквиемом Брамса.



Показать сообщения:    

Текущее время: 10-Дек 04:12

Часовой пояс: UTC + 3


Вы не можете начинать темы
Вы не можете отвечать на сообщения
Вы не можете редактировать свои сообщения
Вы не можете удалять свои сообщения
Вы не можете голосовать в опросах
Вы не можете прикреплять файлы к сообщениям
Вы не можете скачивать файлы