Сердце адмирала. Герман Угрюмов (Татьяна Лебяжьева) [2014, историко-патриотический, SATRip]


Статистика раздачи [Обновить пиров]
Размер:  703 MB   |    Зарегистрирован:  8 месяцев 22 дня   |    Скачан:  0 раз

Полного источника не было: 2 месяца 26 дней

Личеров:  3  [  0 KB/s  ]   Подробная статистика пиров
 
   
 
 
 

[Цитировать]

Сердце адмирала. Герман Угрюмов
Дата/Год выпуска: 2014
Страна: Россия
Жанр: историко-патриотический
Продолжительность: 01:03:036
Перевод: Не требуется
Русские субтитры: нет
Оригинальная аудиодорожка: русский
Режиссер: Татьяна Лебяжьева
Описание: 31 мая - День памяти Героя России, адмирала Германа Алексеевича Угрюмова. За свою службу Герман Угрюмов был награжден многими орденами и медалями, его имя носит боевой корабль, названы улицы во Владивостоке, Грозном, Астрахани (где он родился) и Новороссийске. К сожалению, он ушел из жизни в самом расцвете – 52 года, посвятив все свои силы служению Родине.
Большая часть жизни Германа Угрюмова прошла под грифом «совершенно секретно». По инициативе ЦОС ФСБ РФ некоторые факты деятельности адмирала можно обнародовать.
В распоряжении авторов фильма – уникальные архивные материалы взятие Гудермеса, захват в плен Салмана Радуева, дело Пасько. В фильме принимают участие Секретарь Совета Безопасности Николай Патрушев, бывший Заместитель секретаря Совета Безопасности РФ - начальник департамента по борьбе с терроризмом Валентин Соболев, генерал-лейтенант бывший руководитель Центра общественных связей и управления программ содействия ФСБ Александр Зданович, Герои России: Олег Дуканов, Умар-Паша Ханалиев и другие.
Фильм затрагивает актуальные сегодня вопросы внутренней и внешней политики России.
Благотворительный фонд социальных инициатив «Народное Единство» при участии семьи, друзей и сослуживцев Угрюмова сняли документальный фильм о судьбе человека, преданного своему делу до последнего вздоха.
Фильм «Сердце Адмирала» состоит из рассказа о семи подвигах Германа Алексеевича – тех, что уже могут быть обнародованы, тех, что оставили рубцы на сердце Адмирала и памяти его близких.
Премьера фильма состоялась 21 мая в Доме кино города Москвы. Среди гостей были сотрудники спецслужб, представители органов государственной власти, семья и друзья Адмирала Угрюмова, руководство и ветераны РОО *Московские Суворовцы*, руководство и воспитанники Московского суворовского военного училища.
качество: SATRip
формат: AVI
Видео: MPEG4, XviD, 704x384 (16:9), 25.000 fps, 1 409 Kbps (0.208 bit/pixel)
Аудио: MP3, 48.0 KHz, 2 ch, 128 Kbps, CBR

MediaInfo

General
Complete name : G:\документалка\Сердце адмирала. Герман Угрюмов.avi
Format : AVI
Format/Info : Audio Video Interleave
File size : 703 MiB
Duration : 1h 3mn
Overall bit rate : 1 547 Kbps
Writing application : VirtualDubMod 1.5.10.3 | www.virtualdub-fr.org || (build 2550/release)
Writing library : VirtualDubMod build 2550/release
Video
ID : 0
Format : MPEG-4 Visual
Format profile : Simple@L1
Format settings, BVOP : No
Format settings, QPel : No
Format settings, GMC : No warppoints
Format settings, Matrix : Default (H.263)
Codec ID : XVID
Codec ID/Hint : XviD
Duration : 1h 3mn
Bit rate : 1 409 Kbps
Width : 704 pixels
Height : 384 pixels
Display aspect ratio : 1.85:1
Frame rate : 25.000 fps
Color space : YUV
Chroma subsampling : 4:2:0
Bit depth : 8 bits
Scan type : Progressive
Compression mode : Lossy
Bits/(Pixel*Frame) : 0.208
Stream size : 641 MiB (91%)
Writing library : Lavc53.33.0
Audio
ID : 1
Format : MPEG Audio
Format version : Version 1
Format profile : Layer 3
Codec ID : 55
Codec ID/Hint : MP3
Duration : 1h 3mn
Bit rate mode : Constant
Bit rate : 128 Kbps
Channel(s) : 2 channels
Sampling rate : 48.0 KHz
Compression mode : Lossy
Stream size : 58.2 MiB (8%)
Alignment : Aligned on interleaves
Interleave, duration : 40 ms (1.00 video frame)
Interleave, preload duration : 504 ms
Writing library : LAME3.99r
Encoding settings : -m s -V 4 -q 2 -lowpass 17 -b 128

Скриншоты

[teatrix.ru].t19462.torrent 
Торрент: Зарегистрирован [ 2016-03-18 12:45 ] · F7D7D37CD0D07B62CE66120C1C6E7D988409E10A

Скачать .torrent

Скачать

14 KB

Статус: проверено
Скачан: 0 раз
Размер: 703 MB
terms.php



Быстрый ответ

Имя:

      
Для отправки сообщений необходимо включить JavaScript
Показать сообщения:    

Текущее время: 09-Дек 22:26

Часовой пояс: UTC + 3


Вы можете начинать темы
Вы можете отвечать на сообщения
Вы не можете редактировать свои сообщения
Вы не можете удалять свои сообщения
Вы не можете голосовать в опросах
Вы не можете прикреплять файлы к сообщениям
Вы можете скачивать файлы