(Classical) Zelenka - Missa Dei Patris; Confitebor tibi Domine; Laudate pueri; Capriccios - Hruba-Freiberger, Jacobs, Ginzel, Schreier, Bar; Turingischer Akademischer Singkreis, Virtuosi Saxoniae, Ludwig Guttler - 2013, FLAC (image+.cue) lossless


Статистика раздачи [Обновить пиров]
Размер:  601 MB   |    Зарегистрирован:  8 месяцев 20 дней   |    Скачан:  0 раз

Полного источника не было: Никогда

Личеров:  3  [  0 KB/s  ]   Подробная статистика пиров
 
   
 
 
 

[Цитировать]

Zelenka - Missa Dei Patris; Confitebor tibi Domine; Laudate pueri; Capriccios - Hruba-Freiberger, Jacobs, Ginzel, Schreier, Bär; Türingischer Akademischer Singkreis, Virtuosi Saxoniae, Ludwig Güttler
Жанр: Classical
Год издания диска: 2013
Издатель (лейбл): Brilliant Classics
Номер по каталогу: 94691
Дата записи: 1986,1994
Аудиокодек: FLAC
Тип рипа: image+.cue
Битрейт аудио: lossless
Продолжительность: 2:16:49
Источник: собственный рип
Наличие сканов в содержимом раздачи: да
Треклист:
Jan Dismas Zelenka (1679-1745)
CD1
[1]-[20] Missa Dei Patris ZWV19
Venceslava Hruba-Freiberger soprano
René Jacobs alto
Reinhart Ginzel tenor
Olaf Bär baritone
Friedrich Kircheis continuo organ
Türingischer Akademischer Singkreis
CD2
[1]-[5] Capriccio in G major ZWV183
for two corni da caccia, two oboes, strings, bassoon and b.c.
[6]-[8] Laudate pueri in D major ZWV81
for tenor, trumpet, strings and b.c.
[9]-[13] Capriccio in G major ZWV190
for two corni da caccia, two oboes, strings, bassoon and b.c.
[14]-[15] Confitebor tibi Domine in C minor ZWV71
for bass, strings and b.c.
[16]-[22] Capriccio in A major ZWV185
for two corni da caccia, two oboes, strings, bassoon and b.c.
Peter Schreier tenor
Olaf Bär baritone
Исполнители:
Venceslava Hruba-Freiberger soprano
René Jacobs alto
Reinhart Ginzel tenor
Olaf Bär baritone
Friedrich Kircheis continuo organ
Peter Schreier tenor
Türingischer Akademischer Singkreis
Virtuosi Saxoniae
Ludwig Güttler

Лог создания рипа: CD1

Exact Audio Copy V1.0 beta 3 from 29. August 2011
EAC extraction logfile from 18. July 2014, 17:14
Virtuosi Saxoniae, Ludwig Güttler / Zelenka - Missa Dei Patris
Used drive : HL-DT-STDVDRRW GWA-4164B Adapter: 5 ID: 0
Read mode : Secure
Utilize accurate stream : Yes
Defeat audio cache : Yes
Make use of C2 pointers : No
Read offset correction : 102
Overread into Lead-In and Lead-Out : No
Fill up missing offset samples with silence : Yes
Delete leading and trailing silent blocks : No
Null samples used in CRC calculations : Yes
Used interface : Native Win32 interface for Win NT & 2000
Used output format : User Defined Encoder
Selected bitrate : 896 kBit/s
Quality : High
Add ID3 tag : No
Command line compressor : C:\Program Files\Exact Audio Copy\FLAC\FLAC.EXE
Additional command line options : -V -8 %source%
TOC of the extracted CD
Track | Start | Length | Start sector | End sector
---------------------------------------------------------
1 | 0:00.32 | 4:08.08 | 32 | 18639
2 | 4:08.40 | 3:35.52 | 18640 | 34816
3 | 7:44.17 | 1:05.03 | 34817 | 39694
4 | 8:49.20 | 3:02.42 | 39695 | 53386
5 | 11:51.62 | 1:23.43 | 53387 | 59654
6 | 13:15.30 | 5:34.30 | 59655 | 84734
7 | 18:49.60 | 1:09.20 | 84735 | 89929
8 | 19:59.05 | 4:49.25 | 89930 | 111629
9 | 24:48.30 | 2:46.60 | 111630 | 124139
10 | 27:35.15 | 7:32.50 | 124140 | 158089
11 | 35:07.65 | 1:55.10 | 158090 | 166724
12 | 37:03.00 | 4:19.22 | 166725 | 186171
13 | 41:22.22 | 5:55.53 | 186172 | 212849
14 | 47:18.00 | 4:16.02 | 212850 | 232051
15 | 51:34.02 | 1:56.45 | 232052 | 240796
16 | 53:30.47 | 4:52.50 | 240797 | 262746
17 | 58:23.22 | 1:01.10 | 262747 | 267331
18 | 59:24.32 | 6:58.45 | 267332 | 298726
19 | 66:23.02 | 0:52.63 | 298727 | 302689
20 | 67:15.65 | 2:44.15 | 302690 | 315004
Range status and errors
Selected range
Filename D:\temp\Music\Zelenka - Missa Dei Patris; Psalms; Capriccios\CD1\Zelenka - Missa Dei Patris.wav
Peak level 95.9 %
Extraction speed 3.0 X
Range quality 100.0 %
Test CRC D7B67839
Copy CRC D7B67839
Copy OK
No errors occurred
AccurateRip summary
Track 1 cannot be verified as accurate (confidence 3) [EC3A716A], AccurateRip returned [6F3C9705] (AR v2)
Track 2 cannot be verified as accurate (confidence 3) [08FAB001], AccurateRip returned [08A7C01F] (AR v2)
Track 3 cannot be verified as accurate (confidence 3) [E2756390], AccurateRip returned [6C2D9AC4] (AR v2)
Track 4 cannot be verified as accurate (confidence 3) [C4EA2543], AccurateRip returned [6A3BB6D1] (AR v2)
Track 5 cannot be verified as accurate (confidence 3) [2E77703F], AccurateRip returned [6F839C81] (AR v2)
Track 6 cannot be verified as accurate (confidence 3) [E5A321B5], AccurateRip returned [CAE7F43C] (AR v2)
Track 7 cannot be verified as accurate (confidence 3) [17BD2E55], AccurateRip returned [CB73FA94] (AR v2)
Track 8 cannot be verified as accurate (confidence 3) [1639E77B], AccurateRip returned [2F877811] (AR v2)
Track 9 cannot be verified as accurate (confidence 3) [AAB94AFB], AccurateRip returned [EF352052] (AR v2)
Track 10 cannot be verified as accurate (confidence 3) [CBC2A576], AccurateRip returned [036DF658] (AR v2)
Track 11 cannot be verified as accurate (confidence 3) [B4A05019], AccurateRip returned [920135DB] (AR v2)
Track 12 cannot be verified as accurate (confidence 3) [DE2D0B6B], AccurateRip returned [479EE185] (AR v2)
Track 13 cannot be verified as accurate (confidence 3) [238D0760], AccurateRip returned [2594B17E] (AR v2)
Track 14 cannot be verified as accurate (confidence 3) [B15882E8], AccurateRip returned [1651F775] (AR v2)
Track 15 cannot be verified as accurate (confidence 3) [4D709F70], AccurateRip returned [914B6955] (AR v2)
Track 16 cannot be verified as accurate (confidence 3) [B0E9AD84], AccurateRip returned [642959AC] (AR v2)
Track 17 cannot be verified as accurate (confidence 3) [59C202DC], AccurateRip returned [D9677ECC] (AR v2)
Track 18 cannot be verified as accurate (confidence 3) [EC94FAEB], AccurateRip returned [D117C91F] (AR v2)
Track 19 cannot be verified as accurate (confidence 3) [1EF21ACA], AccurateRip returned [8D5847F3] (AR v2)
Track 20 cannot be verified as accurate (confidence 3) [E64F92C9], AccurateRip returned [62B7C933] (AR v2)
No tracks could be verified as accurate
You may have a different pressing from the one(s) in the database
End of status report
==== Log checksum F265AD028020650BB9693F8C5A3A898D02E7B9BBB1F30DF8C9D04EECF4D2CA00 ====

Лог создания рипа: CD2

Exact Audio Copy V1.0 beta 3 from 29. August 2011
EAC extraction logfile from 19. July 2014, 3:05
Virtuosi Saxoniae, Ludwig Guttler / Zelenka - Psalms; Capriccios
Used drive : HL-DT-STDVDRAM GU70N Adapter: 0 ID: 0
Read mode : Secure
Utilize accurate stream : Yes
Defeat audio cache : Yes
Make use of C2 pointers : No
Read offset correction : 48
Overread into Lead-In and Lead-Out : No
Fill up missing offset samples with silence : Yes
Delete leading and trailing silent blocks : No
Null samples used in CRC calculations : Yes
Used interface : Native Win32 interface for Win NT & 2000
Used output format : User Defined Encoder
Selected bitrate : 128 kBit/s
Quality : High
Add ID3 tag : No
Command line compressor : C:\Program Files (x86)\Exact Audio Copy\Flac\flac.exe
Additional command line options : -V -8 -T "Date=%year%" -T "Genre=%genre%" %source%
TOC of the extracted CD
Track | Start | Length | Start sector | End sector
---------------------------------------------------------
1 | 0:00.00 | 3:18.17 | 0 | 14866
2 | 3:18.17 | 3:13.43 | 14867 | 29384
3 | 6:31.60 | 0:52.62 | 29385 | 33346
4 | 7:24.47 | 1:13.55 | 33347 | 38876
5 | 8:38.27 | 3:08.10 | 38877 | 52986
6 | 11:46.37 | 3:10.05 | 52987 | 67241
7 | 14:56.42 | 3:37.55 | 67242 | 83571
8 | 18:34.22 | 2:00.63 | 83572 | 92634
9 | 20:35.10 | 4:20.10 | 92635 | 112144
10 | 24:55.20 | 3:09.65 | 112145 | 126384
11 | 28:05.10 | 3:46.20 | 126385 | 143354
12 | 31:51.30 | 1:17.52 | 143355 | 149181
13 | 33:09.07 | 3:27.15 | 149182 | 164721
14 | 36:36.22 | 3:10.63 | 164722 | 179034
15 | 39:47.10 | 5:55.72 | 179035 | 205731
16 | 45:43.07 | 5:50.73 | 205732 | 232054
17 | 51:34.05 | 1:36.25 | 232055 | 239279
18 | 53:10.30 | 4:45.02 | 239280 | 260656
19 | 57:55.32 | 2:30.20 | 260657 | 271926
20 | 60:25.52 | 2:30.48 | 271927 | 283224
21 | 62:56.25 | 1:42.45 | 283225 | 290919
22 | 64:38.70 | 2:11.07 | 290920 | 300751
Range status and errors
Selected range
Filename C:\temp\Zelenka - Missa Dei Patris; Psalms; Capriccios\CD2\Zelenka - Psalms; Capriccios.wav
Peak level 99.0 %
Extraction speed 2.2 X
Range quality 100.0 %
Test CRC 0F94DAA9
Copy CRC 0F94DAA9
Copy OK
No errors occurred
AccurateRip summary
Track 1 cannot be verified as accurate (confidence 2) [A867DEE1], AccurateRip returned [FE84100E] (AR v2)
Track 2 cannot be verified as accurate (confidence 2) [A92E427F], AccurateRip returned [02DCD37D] (AR v2)
Track 3 cannot be verified as accurate (confidence 2) [A1CB227B], AccurateRip returned [17599718] (AR v2)
Track 4 cannot be verified as accurate (confidence 2) [6650B0B3], AccurateRip returned [724E75F6] (AR v2)
Track 5 cannot be verified as accurate (confidence 2) [10A644AB], AccurateRip returned [AF6F1DAF] (AR v2)
Track 6 cannot be verified as accurate (confidence 2) [F265FF90], AccurateRip returned [C50D6DDF] (AR v2)
Track 7 cannot be verified as accurate (confidence 2) [646D4BE9], AccurateRip returned [B10FF7C8] (AR v2)
Track 8 cannot be verified as accurate (confidence 2) [55B72D99], AccurateRip returned [C4016E74] (AR v2)
Track 9 cannot be verified as accurate (confidence 2) [F5FF43D7], AccurateRip returned [F62C0EDF] (AR v2)
Track 10 cannot be verified as accurate (confidence 2) [003E233A], AccurateRip returned [B8258BFE] (AR v2)
Track 11 cannot be verified as accurate (confidence 2) [EB0A3BD6], AccurateRip returned [48F57B21] (AR v2)
Track 12 cannot be verified as accurate (confidence 2) [C998C79C], AccurateRip returned [BBF50BDC] (AR v2)
Track 13 cannot be verified as accurate (confidence 2) [396BD9B1], AccurateRip returned [B5DE32DC] (AR v2)
Track 14 cannot be verified as accurate (confidence 2) [DDAB5959], AccurateRip returned [3A91AE76] (AR v2)
Track 15 cannot be verified as accurate (confidence 2) [D7A2E40C], AccurateRip returned [1EE9E7C2] (AR v2)
Track 16 cannot be verified as accurate (confidence 2) [86F5F18D], AccurateRip returned [821AA25B] (AR v2)
Track 17 cannot be verified as accurate (confidence 2) [B5AFEC6A], AccurateRip returned [AE5B5890] (AR v2)
Track 18 cannot be verified as accurate (confidence 2) [9A162FB7], AccurateRip returned [80E21125] (AR v2)
Track 19 cannot be verified as accurate (confidence 2) [055BE923], AccurateRip returned [5B4C5AF7] (AR v2)
Track 20 cannot be verified as accurate (confidence 2) [F35D60EA], AccurateRip returned [6D6FE861] (AR v2)
Track 21 cannot be verified as accurate (confidence 2) [772419A4], AccurateRip returned [6C4BFEC9] (AR v2)
Track 22 cannot be verified as accurate (confidence 2) [AEFF7120], AccurateRip returned [E717E33A] (AR v2)
No tracks could be verified as accurate
You may have a different pressing from the one(s) in the database
End of status report
==== Log checksum 0FC8CDD05EAC05A6DF3676F77317CB215BF9E60EE71289EA3AEC90A26C7C998B ====
[teatrix.ru].t19464.torrent 
Торрент: Зарегистрирован [ 2016-03-18 12:45 ] · 3DD7F637F5FCE60D2C2CC3A9E8073B50FD4475F7

Скачать .torrent

Скачать

26 KB

Статус: проверено
Скачан: 0 раз
Размер: 601 MB
terms.php



Быстрый ответ

Имя:

      
Для отправки сообщений необходимо включить JavaScript
Показать сообщения:    

Текущее время: 07-Дек 15:33

Часовой пояс: UTC + 3


Вы можете начинать темы
Вы можете отвечать на сообщения
Вы не можете редактировать свои сообщения
Вы не можете удалять свои сообщения
Вы не можете голосовать в опросах
Вы не можете прикреплять файлы к сообщениям
Вы можете скачивать файлы