Парижские тайны Эльдара Рязанова: Жан-Поль Бельмондо (Юрий Афиногенов) [1997, документальный, кинематограф, VHSRip]


Статистика раздачи [Обновить пиров]
Размер:  425 MB   |    Зарегистрирован:  8 месяцев 20 дней   |    Скачан:  0 раз

Полного источника не было: Никогда

Личеров:  3  [  0 KB/s  ]   Подробная статистика пиров
 
   
 
 
 

[Цитировать]

Жан-Поль Бельмондо
Парижские тайны Эльдара Рязанова- Дата/Год выпуска: 1997
Страна: Россия
Жанр: документальный, кинематограф
Продолжительность: 00:35:07
Перевод: Студийный (одноголосый закадровый)
Доп. инфо о переводе: Ren-TV (перевод Ришат Сабитов, текст читал Александр Белявский)
Русские субтитры: нет
Режиссер: Юрий Афиногенов
Телеканал: Ren-TVОписание: Наш график был всегда насыщен до предела. В день по "клиенту", так я называл тех, у кого брал интервью. Была, например, такая поездка: за пять календарных дней мы сделали четыре полнометражные программы в двух странах - во Франции и Швейцарии. В Париже мы снимали Пьера Ришара, Романа Поланского, Клаудиу Кардинале, а в Швейцарии помчались к Питеру Устинову. Если сложить все дни пребывания нашей съемочной группы во Франции, то не наберется и двух месяцев. При этом начиная с 1995-го по 1998-й, то есть полных четыре года, ежемесячно в эфире появлялись "Парижские тайны Эльдара Рязанова". Для меня это была страшенная нагрузка. Ведь в этот период я писал сценарий, снимал комедию "Привет, дуралеи!", вообще вел очень активный образ жизни. Со стороны мое житье казалось, наверное, роскошным. Интервью со всемирно известными людьми, встречи в фешенебельных гостиницах, дворцах, шикарных апартаментах. Внешне выглядело красиво. Но единственное мое оружие в разговорах с незнакомыми мне французами было знать о собеседнике досконально все. Только когда они понимали, что я осведомлен чрезвычайно, они раскрывались. А для этого надо было знать множество сведений, помнить огромное количество имен и фамилий, не путаться в датах и названиях фильмов. (из книги "Эльдар Рязанов: Мои парижские тайны")
Доп. информация: За предоставленный материал благодарность vova2500

качество: VHSRip
формат: MKV
Видео: AVC (H.264), 624x464 (4:3), 25 fps, ~1500 kbps avg, 0.207 bit/pixel
Аудио: AC3, 2 ch, 48 kHz, ~192.00 kbps avg

MediaInfo

Общее
Уникальный идентификатор : 183190692921894881546678298578948050014 (0x89D13E7D8AFA996A8DAEE21CC7C1CC5E)
Полное имя : E:\My Torrents 2\[apreder]Les_mysteres_de_Paris_Jean-Paul_Belmondo(1997)VHSRip.mkv
Формат : Matroska
Версия формата : Version 2
Размер файла : 425 Мбайт
Продолжительность : 35 м.
Общий поток : 1694 Кбит/сек
Дата кодирования : UTC 2014-11-15 12:46:31
Программа кодирования : mkvmerge v7.3.0 ('Nouages') 64bit built on Oct 22 2014 18:53:34
Библиотека кодирования : libebml v1.3.0 + libmatroska v1.4.1
Видео
Идентификатор : 1
Формат : AVC
Формат/Информация : Advanced Video Codec
Профиль формата : High@L4.1
Параметр CABAC формата : Да
Параметр ReFrames формата : 16 кадров
Идентификатор кодека : V_MPEG4/ISO/AVC
Продолжительность : 35 м.
Битрейт : 1500 Кбит/сек
Ширина : 624 пикселя
Высота : 464 пикселя
Соотношение сторон : 4:3
Режим частоты кадров : Постоянный
Частота кадров : 25,000 кадров/сек
Цветовое пространство : YUV
Субдискретизация насыщенности : 4:2:0
Битовая глубина : 8 бит
Тип развёртки : Прогрессивная
Бит/(Пиксели*Кадры) : 0.207
Размер потока : 369 Мбайт (87%)
Библиотека кодирования : x264 core 142 r2431 ac76440
Настройки программы : cabac=1 / ref=16 / deblock=1:-1:-1 / analyse=0x3:0x133 / me=umh / subme=10 / psy=1 / psy_rd=1.00:0.15 / mixed_ref=1 / me_range=24 / chroma_me=1 / trellis=2 / 8x8dct=1 / cqm=0 / deadzone=21,11 / fast_pskip=1 / chroma_qp_offset=-3 / threads=6 / lookahead_threads=1 / sliced_threads=0 / nr=0 / decimate=1 / interlaced=0 / bluray_compat=0 / constrained_intra=0 / bframes=8 / b_pyramid=2 / b_adapt=2 / b_bias=0 / direct=3 / weightb=1 / open_gop=0 / weightp=2 / keyint=250 / keyint_min=25 / scenecut=40 / intra_refresh=0 / rc_lookahead=60 / rc=2pass / mbtree=1 / bitrate=1500 / ratetol=1.0 / qcomp=0.60 / qpmin=0 / qpmax=69 / qpstep=4 / cplxblur=20.0 / qblur=0.5 / vbv_maxrate=62500 / vbv_bufsize=78125 / nal_hrd=none / filler=0 / ip_ratio=1.40 / aq=1:1.00
Default : Да
Forced : Нет
Аудио
Идентификатор : 2
Формат : AC-3
Формат/Информация : Audio Coding 3
Расширение режима : CM (complete main)
Параметр Endianness формата : Big
Идентификатор кодека : A_AC3
Продолжительность : 35 м.
Вид битрейта : Постоянный
Битрейт : 192 Кбит/сек
Каналы : 1 канал
Расположение каналов : Front: C
Частота : 48,0 КГц
Битовая глубина : 16 бит
Метод сжатия : С потерями
Размер потока : 48,2 Мбайт (11%)
Язык : Russian
Default : Да
Forced : Нет

Скриншоты


Резервные скриншоты


-[1'909]
[teatrix.ru].t19465.torrent 
Торрент: Зарегистрирован [ 2016-03-18 12:45 ] · 160F9D12C1869A2D2BCD0D6AEB1CFC87607B1A65

Скачать .torrent

Скачать

17 KB

Статус: проверено
Скачан: 0 раз
Размер: 425 MB
terms.php



Быстрый ответ

Имя:

      
Для отправки сообщений необходимо включить JavaScript
Показать сообщения:    

Текущее время: 07-Дек 17:30

Часовой пояс: UTC + 3


Вы можете начинать темы
Вы можете отвечать на сообщения
Вы не можете редактировать свои сообщения
Вы не можете удалять свои сообщения
Вы не можете голосовать в опросах
Вы не можете прикреплять файлы к сообщениям
Вы можете скачивать файлы