(Classical) Brahms - A German Requiem/Ein deutsches Requiem (Elizabeth Watts, Stephane Degout, Yannick Nezet-Seguin) - 2010, FLAC (tracks+.cue) lossless


 

[Цитировать]

Brahms - A German Requiem/Ein deutsches Requiem (Elizabeth Watts, Stéphane Degout, Yannick Nezet-Seguin)
Жанр: Classical
Год издания диска: 2010
Издатель (лейбл): LPO
Номер по каталогу: LPO0045
Дата записи: 2009
Аудиокодек: FLAC
Тип рипа: tracks+.cue
Битрейт аудио: lossless
Продолжительность: 75:54
Источник: собственный рип
Треклист:
I. Selig sind, die da Leid tragen Elisabeth Watts 11:59
II. Denn alles Fleisch es ist wie Gras Elisabeth Watts 16:45
III. Herr, lehre doch mich Elisabeth Watts 10:02
IV. Wie lieblich sind deine Wohnungen Elisabeth Watts 5:48
V. Ihr habt nun Traurigkeit Elisabeth Watts 6:55
VI. Denn wir haben hie keine bleibende Statt Elisabeth Watts 12:14
VII. Selig sind die Toten 11:39
Исполнители:
Elizabeth Watts (soprano)
Stéphane Degout (baritone)
Yannick Nézet-Séguin (conductor)
London Philharmonic Orchestra

Лог создания рипа

X Lossless Decoder version 20141109 (148.0)
XLD extraction logfile from 2014-11-15 13:32:28 +0500
Yannick Nézet-Séguin: London Philharmonic Orchestra & Chorus / Brahms: A German Requiem
Used drive : ASUS SBW-06D2X-U (revision D501)
Media type : Pressed CD
Ripper mode : XLD Secure Ripper
Disable audio cache : OK for the drive with a cache less than 1375KiB
Make use of C2 pointers : NO
Read offset correction : 103
Max retry count : 20
Gap status : Analyzed, Appended (except HTOA)
TOC of the extracted CD
Track | Start | Length | Start sector | End sector
---------------------------------------------------------
1 | 00:00:00 | 12:05:33 | 0 | 54407
2 | 12:05:33 | 16:49:45 | 54408 | 130127
3 | 28:55:03 | 10:07:24 | 130128 | 175676
4 | 39:02:27 | 05:54:06 | 175677 | 202232
5 | 44:56:33 | 07:00:26 | 202233 | 233758
6 | 51:56:59 | 12:18:57 | 233759 | 289165
7 | 64:15:41 | 11:39:34 | 289166 | 341624
AccurateRip Summary (DiscID: 0015c634-007fc236-6e11cb07)
Track 01 : OK (v1+v2, confidence 2/2)
Track 02 : OK (v1+v2, confidence 2/2)
Track 03 : OK (v1+v2, confidence 2/2)
Track 04 : OK (v1+v2, confidence 2/2)
Track 05 : OK (v1+v2, confidence 2/2)
Track 06 : OK (v1+v2, confidence 2/2)
Track 07 : OK (v1+v2, confidence 2/2)
->All tracks accurately ripped.
All Tracks
Statistics
Read error : 0
Jitter error (maybe fixed) : 0
Retry sector count : 0
Damaged sector count : 0
Track 01
Filename : /Volumes/Andy HD2/XLD/Brahms - A German Requiem (Yannick Nezet-Seguin)/01.01 Elizabeth Watts, Stephane Degout; Yannick Nezet-Seguin. London Philharmonic Orchestra & Chorus - Brahms. Ein Deutsches Requiem, Op. 45 - Selig Sind, Die Da Leid Tragen.flac
Pre-gap length : 00:02:00
CRC32 hash : 021B8F26
CRC32 hash (skip zero) : EC09189B
AccurateRip v1 signature : B142A382
AccurateRip v2 signature : 845E5EA0
->Accurately ripped (v1+v2, confidence 1+1/2)
Statistics
Read error : 0
Jitter error (maybe fixed) : 0
Retry sector count : 0
Damaged sector count : 0
Track 02
Filename : /Volumes/Andy HD2/XLD/Brahms - A German Requiem (Yannick Nezet-Seguin)/01.02 Elizabeth Watts, Stephane Degout; Yannick Nezet-Seguin. London Philharmonic Orchestra & Chorus - Brahms. Ein Deutsches Requiem, Op. 45 - Denn Alles Fleisch Es Ist Wie Gras.flac
Pre-gap length : 00:06:03
CRC32 hash : 885288F1
CRC32 hash (skip zero) : 0235EFCE
AccurateRip v1 signature : 91898FC2
AccurateRip v2 signature : 0BDF8DBD
->Accurately ripped (v1+v2, confidence 1+1/2)
Statistics
Read error : 0
Jitter error (maybe fixed) : 0
Retry sector count : 0
Damaged sector count : 0
Track 03
Filename : /Volumes/Andy HD2/XLD/Brahms - A German Requiem (Yannick Nezet-Seguin)/01.03 Elizabeth Watts, Stephane Degout; Yannick Nezet-Seguin. London Philharmonic Orchestra & Chorus - Brahms. Ein Deutsches Requiem, Op. 45 - Herr, Lehre Doch Mich.flac
Pre-gap length : 00:04:43
CRC32 hash : 5EDBC6CD
CRC32 hash (skip zero) : 1778C4F1
AccurateRip v1 signature : D6E5BE2B
AccurateRip v2 signature : 790CE25C
->Accurately ripped (v1+v2, confidence 1+1/2)
Statistics
Read error : 0
Jitter error (maybe fixed) : 0
Retry sector count : 0
Damaged sector count : 0
Track 04
Filename : /Volumes/Andy HD2/XLD/Brahms - A German Requiem (Yannick Nezet-Seguin)/01.04 Elizabeth Watts, Stephane Degout; Yannick Nezet-Seguin. London Philharmonic Orchestra & Chorus - Brahms. Ein Deutsches Requiem, Op. 45 - Wie Lieblich Sind Deine Wohnungen.flac
Pre-gap length : 00:04:36
CRC32 hash : D5059326
CRC32 hash (skip zero) : F09647CC
AccurateRip v1 signature : DF3C765A
AccurateRip v2 signature : 6CA84353
->Accurately ripped (v1+v2, confidence 1+1/2)
Statistics
Read error : 0
Jitter error (maybe fixed) : 0
Retry sector count : 0
Damaged sector count : 0
Track 05
Filename : /Volumes/Andy HD2/XLD/Brahms - A German Requiem (Yannick Nezet-Seguin)/01.05 Elizabeth Watts, Stephane Degout; Yannick Nezet-Seguin. London Philharmonic Orchestra & Chorus - Brahms. Ein Deutsches Requiem, Op. 45 - Ihr Habt Nun Traurigkeit.flac
Pre-gap length : 00:05:22
CRC32 hash : D8D02339
CRC32 hash (skip zero) : 42EFD02D
AccurateRip v1 signature : 91D7CFB7
AccurateRip v2 signature : 55254530
->Accurately ripped (v1+v2, confidence 1+1/2)
Statistics
Read error : 0
Jitter error (maybe fixed) : 0
Retry sector count : 0
Damaged sector count : 0
Track 06
Filename : /Volumes/Andy HD2/XLD/Brahms - A German Requiem (Yannick Nezet-Seguin)/01.06 Elizabeth Watts, Stephane Degout; Yannick Nezet-Seguin. London Philharmonic Orchestra & Chorus - Brahms. Ein Deutsches Requiem, Op. 45 - Denn Wir Haben Keine Bleibende Statt.flac
Pre-gap length : 00:04:60
CRC32 hash : 4C77AE55
CRC32 hash (skip zero) : 57FB4C0B
AccurateRip v1 signature : E2B35988
AccurateRip v2 signature : 57388EED
->Accurately ripped (v1+v2, confidence 1+1/2)
Statistics
Read error : 0
Jitter error (maybe fixed) : 0
Retry sector count : 0
Damaged sector count : 0
Track 07
Filename : /Volumes/Andy HD2/XLD/Brahms - A German Requiem (Yannick Nezet-Seguin)/01.07 Elizabeth Watts, Stephane Degout; Yannick Nezet-Seguin. London Philharmonic Orchestra & Chorus - Brahms. Ein Deutsches Requiem, Op. 45 - Selig Sind Die Toten.flac
Pre-gap length : 00:04:35
CRC32 hash : C70828C3
CRC32 hash (skip zero) : 00071481
AccurateRip v1 signature : A95E649C
AccurateRip v2 signature : E77B34CE
->Accurately ripped (v1+v2, confidence 1+1/2)
Statistics
Read error : 0
Jitter error (maybe fixed) : 0
Retry sector count : 0
Damaged sector count : 0
No errors occurred
End of status report

Содержание индексной карты (.CUE)

TITLE "Brahms: A German Requiem"
PERFORMER "Yannick Nézet-Séguin: London Philharmonic Orchestra & Chorus"
CATALOG 0854990001451
REM GENRE "Classical"
REM DATE "2010"
REM DISCNUMBER 1
REM TOTALDISCS 1
REM DISCID 6E11CB07
REM COMPILATION TRUE
FILE "01.01 Elizabeth Watts, Stephane Degout; Yannick Nezet-Seguin. London Philharmonic Orchestra & Chorus - Brahms. Ein Deutsches Requiem, Op. 45 - Selig Sind, Die Da Leid Tragen.flac" WAVE
TRACK 01 AUDIO
TITLE "Brahms: Ein Deutsches Requiem, Op. 45 - Selig Sind, Die Da Leid Tragen"
PERFORMER "Elizabeth Watts, Stéphane Degout; Yannick Nézet-Séguin: London Philharmonic Orchestra & Chorus"
SONGWRITER "Johannes Brahms/Johannes Brahms"
ISRC GBHZU1004501
INDEX 01 00:00:00
TRACK 02 AUDIO
TITLE "Brahms: Ein Deutsches Requiem, Op. 45 - Denn Alles Fleisch Es Ist Wie Gras"
PERFORMER "Elizabeth Watts, Stéphane Degout; Yannick Nézet-Séguin: London Philharmonic Orchestra & Chorus"
SONGWRITER "Johannes Brahms/Johannes Brahms"
ISRC GBHZU1004502
INDEX 00 11:59:30
FILE "01.02 Elizabeth Watts, Stephane Degout; Yannick Nezet-Seguin. London Philharmonic Orchestra & Chorus - Brahms. Ein Deutsches Requiem, Op. 45 - Denn Alles Fleisch Es Ist Wie Gras.flac" WAVE
INDEX 01 00:00:00
TRACK 03 AUDIO
TITLE "Brahms: Ein Deutsches Requiem, Op. 45 - Herr, Lehre Doch Mich"
PERFORMER "Elizabeth Watts, Stéphane Degout; Yannick Nézet-Séguin: London Philharmonic Orchestra & Chorus"
SONGWRITER "Johannes Brahms/Johannes Brahms"
ISRC GBHZU1004503
INDEX 00 16:45:02
FILE "01.03 Elizabeth Watts, Stephane Degout; Yannick Nezet-Seguin. London Philharmonic Orchestra & Chorus - Brahms. Ein Deutsches Requiem, Op. 45 - Herr, Lehre Doch Mich.flac" WAVE
INDEX 01 00:00:00
TRACK 04 AUDIO
TITLE "Brahms: Ein Deutsches Requiem, Op. 45 - Wie Lieblich Sind Deine Wohnungen"
PERFORMER "Elizabeth Watts, Stéphane Degout; Yannick Nézet-Séguin: London Philharmonic Orchestra & Chorus"
SONGWRITER "Johannes Brahms/Johannes Brahms"
ISRC GBHZU1004504
INDEX 00 10:02:63
FILE "01.04 Elizabeth Watts, Stephane Degout; Yannick Nezet-Seguin. London Philharmonic Orchestra & Chorus - Brahms. Ein Deutsches Requiem, Op. 45 - Wie Lieblich Sind Deine Wohnungen.flac" WAVE
INDEX 01 00:00:00
TRACK 05 AUDIO
TITLE "Brahms: Ein Deutsches Requiem, Op. 45 - Ihr Habt Nun Traurigkeit"
PERFORMER "Elizabeth Watts, Stéphane Degout; Yannick Nézet-Séguin: London Philharmonic Orchestra & Chorus"
SONGWRITER "Johannes Brahms/Johannes Brahms"
ISRC GBHZU1004505
INDEX 00 05:48:59
FILE "01.05 Elizabeth Watts, Stephane Degout; Yannick Nezet-Seguin. London Philharmonic Orchestra & Chorus - Brahms. Ein Deutsches Requiem, Op. 45 - Ihr Habt Nun Traurigkeit.flac" WAVE
INDEX 01 00:00:00
TRACK 06 AUDIO
TITLE "Brahms: Ein Deutsches Requiem, Op. 45 - Denn Wir Haben Keine Bleibende Statt"
PERFORMER "Elizabeth Watts, Stéphane Degout; Yannick Nézet-Séguin: London Philharmonic Orchestra & Chorus"
SONGWRITER "Johannes Brahms/Johannes Brahms"
ISRC GBHZU1004506
INDEX 00 06:55:41
FILE "01.06 Elizabeth Watts, Stephane Degout; Yannick Nezet-Seguin. London Philharmonic Orchestra & Chorus - Brahms. Ein Deutsches Requiem, Op. 45 - Denn Wir Haben Keine Bleibende Statt.flac" WAVE
INDEX 01 00:00:00
TRACK 07 AUDIO
TITLE "Brahms: Ein Deutsches Requiem, Op. 45 - Selig Sind Die Toten"
PERFORMER "Elizabeth Watts, Stéphane Degout; Yannick Nézet-Séguin: London Philharmonic Orchestra & Chorus"
SONGWRITER "Johannes Brahms/Johannes Brahms"
ISRC GBHZU1004507
INDEX 00 12:14:22
FILE "01.07 Elizabeth Watts, Stephane Degout; Yannick Nezet-Seguin. London Philharmonic Orchestra & Chorus - Brahms. Ein Deutsches Requiem, Op. 45 - Selig Sind Die Toten.flac" WAVE
INDEX 01 00:00:00



Показать сообщения:    

Текущее время: 03-Дек 20:44

Часовой пояс: UTC + 3


Вы не можете начинать темы
Вы не можете отвечать на сообщения
Вы не можете редактировать свои сообщения
Вы не можете удалять свои сообщения
Вы не можете голосовать в опросах
Вы не можете прикреплять файлы к сообщениям
Вы не можете скачивать файлы