(Classical) Anton Bruckner - Symphony No. 7 in E Major (Yannick Nezet-Seguin) - 2007, FLAC (tracks+.cue) lossless


 

[Цитировать]

Anton Bruckner - Symphony No. 7 in E Major (Yannick Nezet-Seguin)
Жанр: Classical
Год издания диска: 2007
Издатель (лейбл): atma
Номер по каталогу: SACD22512
Дата записи: 2007
Аудиокодек: FLAC
Тип рипа: tracks+.cue
Битрейт аудио: lossless
Продолжительность: 70.03
Источник: собственный рип
Треклист:
Symphony No. 7 in E major, WAB 107
1. Allegro moderato
2. Andante (Sehr feierlich und sehr langsam)
3. Scherzo (Sehr schnell)
4. Finale (Bewegt, doch nicht schnell)
Исполнители:
Orchestre Métropolitain du Grand Montréal (OM)
Yannick Nézet-Séguin

Лог создания рипа

X Lossless Decoder version 20141109 (148.0)
XLD extraction logfile from 2014-11-15 13:20:08 +0500
Yannick Nézet-Séguin: Orchestre Métropolitain Du Grand Montréal / Bruckner: Symphony #7 In E
Used drive : ASUS SBW-06D2X-U (revision D501)
Media type : Pressed CD
Ripper mode : XLD Secure Ripper
Disable audio cache : OK for the drive with a cache less than 1375KiB
Make use of C2 pointers : NO
Read offset correction : 103
Max retry count : 20
Gap status : Analyzed, Appended (except HTOA)
TOC of the extracted CD
Track | Start | Length | Start sector | End sector
---------------------------------------------------------
1 | 00:00:00 | 21:59:74 | 0 | 98998
2 | 21:59:74 | 25:46:17 | 98999 | 214965
3 | 47:46:16 | 10:20:65 | 214966 | 261530
4 | 58:07:06 | 11:56:22 | 261531 | 315252
AccurateRip Summary (DiscID: 000d977d-0034e046-39106b04)
Track 01 : OK (v1+v2, confidence 5/5)
Track 02 : OK (v1+v2, confidence 5/5)
Track 03 : OK (v1+v2, confidence 5/5)
Track 04 : OK (v1+v2, confidence 5/5)
->All tracks accurately ripped.
All Tracks
Statistics
Read error : 0
Jitter error (maybe fixed) : 0
Retry sector count : 0
Damaged sector count : 0
Track 01
Filename : /Volumes/Andy HD2/XLD/Bruckner - Symphony #7 In E (Yannick Nezet-Seguin)/01.01 Yannick Nezet-Seguin. Orchestre Metropolitain Du Grand Montreal - Bruckner. Symphony #7 In E - Allegro Moderato.flac
Pre-gap length : 00:02:00
CRC32 hash : 23E63EC6
CRC32 hash (skip zero) : F7D69681
AccurateRip v1 signature : 2924C988
AccurateRip v2 signature : A3789FC8
->Accurately ripped (v1+v2, confidence 2+3/5)
Statistics
Read error : 0
Jitter error (maybe fixed) : 0
Retry sector count : 0
Damaged sector count : 0
Track 02
Filename : /Volumes/Andy HD2/XLD/Bruckner - Symphony #7 In E (Yannick Nezet-Seguin)/01.02 Yannick Nezet-Seguin. Orchestre Metropolitain Du Grand Montreal - Bruckner. Symphony #7 In E - Andante (Sehr Feierlich Und Seh Langsam).flac
CRC32 hash : 9A6EDCC1
CRC32 hash (skip zero) : 5A5B8A45
AccurateRip v1 signature : EC9F6FCA
AccurateRip v2 signature : 4CD3EF63
->Accurately ripped (v1+v2, confidence 2+3/5)
Statistics
Read error : 0
Jitter error (maybe fixed) : 0
Retry sector count : 0
Damaged sector count : 0
Track 03
Filename : /Volumes/Andy HD2/XLD/Bruckner - Symphony #7 In E (Yannick Nezet-Seguin)/01.03 Yannick Nezet-Seguin. Orchestre Metropolitain Du Grand Montreal - Bruckner. Symphony #7 In E - Scherzo (Sehr Schnell.flac
CRC32 hash : 2D901F2E
CRC32 hash (skip zero) : E21B8ACA
AccurateRip v1 signature : 338C6F88
AccurateRip v2 signature : FCF0EB84
->Accurately ripped (v1+v2, confidence 2+3/5)
Statistics
Read error : 0
Jitter error (maybe fixed) : 0
Retry sector count : 0
Damaged sector count : 0
Track 04
Filename : /Volumes/Andy HD2/XLD/Bruckner - Symphony #7 In E (Yannick Nezet-Seguin)/01.04 Yannick Nezet-Seguin. Orchestre Metropolitain Du Grand Montreal - Bruckner. Symphony #7 In E - Finale (Bewegt, Doch Nicht Schnell.flac
CRC32 hash : 98495D7B
CRC32 hash (skip zero) : DD34DFEC
AccurateRip v1 signature : 9F23331B
AccurateRip v2 signature : 39EBB41B
->Accurately ripped (v1+v2, confidence 2+3/5)
Statistics
Read error : 0
Jitter error (maybe fixed) : 0
Retry sector count : 0
Damaged sector count : 0
No errors occurred
End of status report

Содержание индексной карты (.CUE)

TITLE "Bruckner: Symphony #7 In E"
PERFORMER "Yannick Nézet-Séguin: Orchestre Métropolitain Du Grand Montréal"
REM GENRE "Classical"
REM DATE "2007"
REM DISCNUMBER 1
REM TOTALDISCS 1
REM DISCID 39106B04
FILE "01.01 Yannick Nezet-Seguin. Orchestre Metropolitain Du Grand Montreal - Bruckner. Symphony #7 In E - Allegro Moderato.flac" WAVE
TRACK 01 AUDIO
TITLE "Bruckner: Symphony #7 In E - Allegro Moderato"
SONGWRITER "Anton Bruckner (1824-1896)/Bruckner/Anton Bruckner"
ISRC CAJ720751201
INDEX 01 00:00:00
FILE "01.02 Yannick Nezet-Seguin. Orchestre Metropolitain Du Grand Montreal - Bruckner. Symphony #7 In E - Andante (Sehr Feierlich Und Seh Langsam).flac" WAVE
TRACK 02 AUDIO
TITLE "Bruckner: Symphony #7 In E - Andante (Sehr Feierlich Und Seh Langsam)"
SONGWRITER "Anton Bruckner (1824-1896)/Bruckner/Anton Bruckner"
ISRC CAJ720751202
INDEX 01 00:00:00
FILE "01.03 Yannick Nezet-Seguin. Orchestre Metropolitain Du Grand Montreal - Bruckner. Symphony #7 In E - Scherzo (Sehr Schnell.flac" WAVE
TRACK 03 AUDIO
TITLE "Bruckner: Symphony #7 In E - Scherzo (Sehr Schnell"
SONGWRITER "Anton Bruckner (1824-1896)/Bruckner/Anton Bruckner"
ISRC CAJ720751203
INDEX 01 00:00:00
FILE "01.04 Yannick Nezet-Seguin. Orchestre Metropolitain Du Grand Montreal - Bruckner. Symphony #7 In E - Finale (Bewegt, Doch Nicht Schnell.flac" WAVE
TRACK 04 AUDIO
TITLE "Bruckner: Symphony #7 In E - Finale (Bewegt, Doch Nicht Schnell"
SONGWRITER "Anton Bruckner (1824-1896)/Bruckner/Anton Bruckner"
ISRC CAJ720751204
INDEX 01 00:00:00



Показать сообщения:    

Текущее время: 09-Дек 22:25

Часовой пояс: UTC + 3


Вы не можете начинать темы
Вы не можете отвечать на сообщения
Вы не можете редактировать свои сообщения
Вы не можете удалять свои сообщения
Вы не можете голосовать в опросах
Вы не можете прикреплять файлы к сообщениям
Вы не можете скачивать файлы