(Gagaku, Contemporary Classical, Chamber) Toshio Hosokawa | Gagaku - Deep Silence (Stefan Hussong, Mayumi Miyata) - 2004, FLAC (image+.cue) lossless


 

[Цитировать]

Toshio Hosokawa | Gagaku - Deep Silence
Жанр: Gagaku, Contemporary Classical, Chamber
Страна-производитель диска: Austria
Год издания диска: 2004
Издатель (лейбл): WERGO
Номер по каталогу: WER 6801 2
Дата записи: 2003
Аудиокодек: FLAC
Тип рипа: image+.cue
Битрейт аудио: lossless
Продолжительность: 1:16:34
Источник: avaxhome
сайт-источник]: avaxhome, релизер - tapaz9
Наличие сканов в содержимом раздачи: да
Треклист:
1 Banshikichō No Chōshi (For Accordion And Shō) 8:48
2 Cloudscapes - Moon Night (For Shō And Accordion) (1998) 12:23
3 Ōshikichō No Chōshi (For Shō Solo) 12:39
4 Sen V (For Accordion) (1991-92) 12:55
5 Hyōjō No Chōshi (For Accordion Solo) 11:20
6 Wie Ein Atmen Im Lichte (For Shō Solo) (2002) 8:10
7 Ichikotsuchō No Chōshi (For Accordion And Shō) 10:19
Исполнители:
Accordion – Stefan Hussong
Sho [Shō] – Mayumi Miyata

Лог создания рипа

Exact Audio Copy V1.0 beta 3 from 29. August 2011
EAC extraction logfile from 17. April 2014, 0:08
Toshio Hosokawa and Gagaku / Deep Silence
Used drive : TSSTcorpCDDVDW SH-S223C Adapter: 2 ID: 1
Read mode : Secure
Utilize accurate stream : Yes
Defeat audio cache : Yes
Make use of C2 pointers : No
Read offset correction : 697
Overread into Lead-In and Lead-Out : No
Fill up missing offset samples with silence : Yes
Delete leading and trailing silent blocks : No
Null samples used in CRC calculations : Yes
Used interface : Native Win32 interface for Win NT & 2000
Used output format : User Defined Encoder
Selected bitrate : 1024 kBit/s
Quality : High
Add ID3 tag : No
Command line compressor : C:\Program Files (x86)\Exact Audio Copy\FLAC\FLAC.EXE
Additional command line options : -V -0 -T "COMMENT=Ripped by Tapaz9" -T "artist=%artist%" -T "title=%title%" -T "album=%albumtitle%" -T "date=%year%" -T "tracknumber=%tracknr%" -T "genre=%genre%" %source%
TOC of the extracted CD
Track | Start | Length | Start sector | End sector
---------------------------------------------------------
1 | 0:00.00 | 8:48.22 | 0 | 39621
2 | 8:48.22 | 12:23.03 | 39622 | 95349
3 | 21:11.25 | 12:39.04 | 95350 | 152278
4 | 33:50.29 | 12:55.05 | 152279 | 210408
5 | 46:45.34 | 11:20.04 | 210409 | 261412
6 | 58:05.38 | 8:10.06 | 261413 | 298168
7 | 66:15.44 | 10:18.66 | 298169 | 344584
Range status and errors
Selected range
Filename F:\Musique\Hosokawa, Toshio\Hosokawa_Cloudscapes_MoonNight\Toshio Hosokawa and Gagaku - Deep Silence.wav
Peak level 89.4 %
Extraction speed 13.0 X
Range quality 100.0 %
Copy CRC 0F4B54E2
Copy OK
No errors occurred
End of status report
==== Log checksum C16F1D9BB365F926CB86C484D79BBE058710AFC5A08C8523BE1DF8F0A3C39249 ====



Показать сообщения:    

Текущее время: 03-Дек 20:43

Часовой пояс: UTC + 3


Вы не можете начинать темы
Вы не можете отвечать на сообщения
Вы не можете редактировать свои сообщения
Вы не можете удалять свои сообщения
Вы не можете голосовать в опросах
Вы не можете прикреплять файлы к сообщениям
Вы не можете скачивать файлы