(Opera) Strauss - Die Frau ohne Schatten * Karajan 1964 (Thomas, Janowitz, Popp, Wunderlich) * Bonus Bohm 1974 Excerpts (King, Rysanek, Berry, Ludwig) - 1999, APE (image+.cue) lossless


 

[Цитировать]

Richard Strauss - Die Frau ohne Schatten op. 65
Жанр: Opera
Страна-производитель диска: Belgium
Год издания диска: 1999
Издатель (лейбл): Gala
Номер по каталогу: Gl 100.607
Дата записи: 1964-1974
Аудиокодек: APE
Тип рипа: image+.cue
Битрейт аудио: lossless
Продолжительность: 77'09+77'08+76'36
Источник: собственный рип
Наличие сканов в содержимом раздачи: да
Треклист:

CD1

1. Act 1: Licht über'm See
2. Act 1: Amme, wachst du?
3. Act 1: Ist mein Liebster dahin?
4. Act 1: Wie soll ich denn nicht weinen?
5. Act 1: Amme, um alles, wo find'ich den Schatten?
6. Act 1: (Verwandlung)
7. Act 1: Dieb! Da nimm! / "Reiss ihn nach hinten" / "Zu Hilfe, Brüder"
8. Act 1: Sie aus dem Hause, und das für immer
9. Act 1: Dritthalb Jahr bin ich dein Weib
10. Act 1: Was wollt' ich hier?
11. Act 1: Ach. Herrin, süsse Herrin!
12. Act 1: Hat es dich blutige Tränen gekostet
13. Act 1: Mutter, Mutter, lass uns nach Hause
14. Act 1: 'Trag' ich die Ware selber zum Markt

CD2

1. Act 2: Komm bald wieder nach Haus, mein Gebieter
2. Act 2: Was ist nun deine Rede, du Prinzessin
3. Act 2: (Verwandlung)
4. Act 2: Falke, Falke, du Wiedergefundener
5. Act 2: [Verwandlung]
6. Act 2: Sieh - Amme - sieh
7. Act 2: Wehe, mein Mann!
8. Act 2: Es gibt derer, die haben immer Zeit
9. Act 2: Schlange, was hab' ich mit dir zu schaffen!
10. Act 2: Ein Handwerk verstehst du sicher nicht
11. Act 2: Aber ich bin nicht in deiner Hand
12. Act 2: Das Weib ist irre
13. Act 2: Barak, ich hab'es nicht getan

CD3

1. Act 3: Schweigt doch, ihr Stimmen!
2. Act 3: Mir anvertraut, dass ich sie hege
3. Act 3: Auf, geh nach oben, Mann
4. Act 3: Fort von hier!
5. Act 3: Wehe, mein Kind
6. Act 3: Vater, bist du's?
7. Act 3: Goldenen Trank
8. Act 3:Wenn, das Herz aus Kristall zerbricht in einem Schrei
9. Act 3: Hört, wir gebieten euch
10. Act 3: Steh nur, ich finde dich
11. Act 3: Nun will ich jubeln
Исполнители:
Richard Strauss - Die Frau ohne Schatten op. 65
Der Kaiser - Jess Thomas
Die Kaiserin - Gundula Janowitz
Die Amme - Grace Hoffman
Der Geisterbode - Walter Kreppel
Ein Hüter des Tempels - Lucia Popp
Ein Jüngling - Fritz Wunderlich
Barak, der Färber - Otto Wiener
Sein Weib - Gladys Kuchta
Chor und Orchester der Wiener Staatsoper
conductor Herbert von Karajan
1964
Bonus:
Треклист:

CD1

15. Act 1: Dieb! Da nimm! - Reiss ihn nach hinten - Zu Hilfe, Brüder
16. Act 1: Sie aus dem Hause, und das für immer
17. Act 1: Dritthalb Jahr bin ich dein Weib

CD2

14. Act 2: Es gibt derer, die haben immer Zeit
15. Act 2: Schlange, was hab' ich mit dir zu schaffen!
16. Act 2: Ein Handwerk verstehst du sicher nicht
17. Act 2: Wer da?
18. Act 2: Es dunkelt, dass ich nicht sehe zur Arbeit
19. Act 2: Es gibt derer, die bleiben immer gelassen...
20. Act 2: Das Weib ist irre

CD3

12. Act 3: Schweigt doch, ihr Stimmen!
13. Act 3: Mir anvertraut, dass ich sie hege
14. Act 3: Auf, geh nach oben, Mann
15. Act 3: Nun will ich jubeln
16. Act 3: Vater, dir drohet nichts
Richard Strauss - Die Frau ohne Schatten op. 65
Der Kaiser - James King
Die Kaiserin - Leonie Rysanek
Die Amme - Ruth Hesse
Der Geisterbode - Martin Egel
Ein Hüter des Tempels - Maria Haug
Ein Jüngling - Martin Schomberg
Barak, der Färber - Walter Berry
Sein Weib - Christa Ludwig
Chor der Wiener Staatsoper
Wiener Phiharmoniker
conductor Karl Böhm
1974

Лог создания рипа

CD1

Exact Audio Copy V1.0 beta 3 from 29. August 2011
EAC extraction logfile from 11. November 2014, 18:13
Strauss / Die Frau ohne Schatten, Karajan CD1
Used drive : TSSTcorpCDDVDW SE-208AB Adapter: 1 ID: 0
Read mode : Secure
Utilize accurate stream : Yes
Defeat audio cache : Yes
Make use of C2 pointers : No
Read offset correction : 6
Overread into Lead-In and Lead-Out : No
Fill up missing offset samples with silence : Yes
Delete leading and trailing silent blocks : No
Null samples used in CRC calculations : Yes
Used interface : Native Win32 interface for Win NT & 2000
Used output format : Monkey's Audio Lossless Encoder
Selected bitrate : High Lossless Compression
Quality : High
Add ID3 tag : Yes
Command line compressor : C:\Program Files (x86)\Exact Audio Copy\MAC\MAC.exe
TOC of the extracted CD
Track | Start | Length | Start sector | End sector
---------------------------------------------------------
1 | 0:00.00 | 5:34.55 | 0 | 25104
2 | 5:34.55 | 5:48.32 | 25105 | 51236
3 | 11:23.12 | 3:31.60 | 51237 | 67121
4 | 14:54.72 | 2:07.08 | 67122 | 76654
5 | 17:02.05 | 4:43.70 | 76655 | 97949
6 | 21:46.00 | 1:46.17 | 97950 | 105916
7 | 23:32.17 | 1:40.23 | 105917 | 113439
8 | 25:12.40 | 8:16.05 | 113440 | 150644
9 | 33:28.45 | 5:02.70 | 150645 | 173364
10 | 38:31.40 | 5:09.02 | 173365 | 196541
11 | 43:40.42 | 3:32.05 | 196542 | 212446
12 | 47:12.47 | 5:14.33 | 212447 | 236029
13 | 52:27.05 | 1:37.42 | 236030 | 243346
14 | 54:04.47 | 7:29.65 | 243347 | 277086
15 | 61:34.37 | 2:23.35 | 277087 | 287846
16 | 63:57.72 | 8:46.10 | 287847 | 327306
17 | 72:44.07 | 4:22.68 | 327307 | 347024
Range status and errors
Selected range
Filename D:\EAC\Strauss - Die Frau ohne Schatten, Karajan CD1.wav
Peak level 93.2 %
Extraction speed 5.3 X
Range quality 100.0 %
Test CRC D514DB5B
Copy CRC D514DB5B
Copy OK
No errors occurred
AccurateRip summary
Track 1 accurately ripped (confidence 2) [04343727] (AR v2)
Track 2 accurately ripped (confidence 2) [3EE0C5A6] (AR v2)
Track 3 accurately ripped (confidence 2) [E6A7D7F0] (AR v2)
Track 4 accurately ripped (confidence 2) [F5312BBF] (AR v2)
Track 5 accurately ripped (confidence 2) [0BA26389] (AR v2)
Track 6 accurately ripped (confidence 2) [48354BEC] (AR v2)
Track 7 accurately ripped (confidence 2) [851BC25F] (AR v2)
Track 8 accurately ripped (confidence 2) [ED94933A] (AR v2)
Track 9 accurately ripped (confidence 2) [54D54548] (AR v2)
Track 10 accurately ripped (confidence 2) [CCF0A2D9] (AR v2)
Track 11 accurately ripped (confidence 2) [0A290912] (AR v2)
Track 12 accurately ripped (confidence 2) [0CB9154E] (AR v2)
Track 13 accurately ripped (confidence 2) [511C8477] (AR v2)
Track 14 accurately ripped (confidence 2) [9108B54D] (AR v2)
Track 15 accurately ripped (confidence 2) [FCD9FB94] (AR v2)
Track 16 accurately ripped (confidence 2) [648D59EB] (AR v2)
Track 17 accurately ripped (confidence 2) [786D2F74] (AR v2)
All tracks accurately ripped
End of status report
---- CUETools DB Plugin V2.1.3
[CTDB TOCID: zqDK8xptL3qbhMfbwgT9OWj9Z8w-] found, Submit result: zqDK8xptL3qbhMfbwgT9OWj9Z8w- has been confirmed
[7674b9f5] (2/2) Accurately ripped
==== Log checksum 550335F63AEF0009A439354491F92F5FB73944896461F287EB0DAA1CC3EA3D5A ====

CD2

Exact Audio Copy V1.0 beta 3 from 29. August 2011
EAC extraction logfile from 5. November 2014, 12:26
Strauss / Die Frau ohne Schatten, Karajan CD2
Used drive : TS8XDVDSTRANSCEND Adapter: 1 ID: 1
Read mode : Secure
Utilize accurate stream : Yes
Defeat audio cache : Yes
Make use of C2 pointers : No
Read offset correction : 6
Overread into Lead-In and Lead-Out : No
Fill up missing offset samples with silence : Yes
Delete leading and trailing silent blocks : No
Null samples used in CRC calculations : Yes
Used interface : Native Win32 interface for Win NT & 2000
Used output format : Monkey's Audio Lossless Encoder
Selected bitrate : High Lossless Compression
Quality : High
Add ID3 tag : Yes
Command line compressor : C:\Program Files (x86)\Exact Audio Copy\MAC\MAC.exe
TOC of the extracted CD
Track | Start | Length | Start sector | End sector
---------------------------------------------------------
1 | 0:00.00 | 3:13.30 | 0 | 14504
2 | 3:13.30 | 5:01.02 | 14505 | 37081
3 | 8:14.32 | 4:05.30 | 37082 | 55486
4 | 12:19.62 | 8:29.70 | 55487 | 93731
5 | 20:49.57 | 2:43.23 | 93732 | 105979
6 | 23:33.05 | 5:18.70 | 105980 | 129899
7 | 28:52.00 | 4:50.47 | 129900 | 151696
8 | 33:42.47 | 3:22.05 | 151697 | 166851
9 | 37:04.52 | 3:07.13 | 166852 | 180889
10 | 40:11.65 | 4:36.02 | 180890 | 201591
11 | 44:47.67 | 3:19.13 | 201592 | 216529
12 | 48:07.05 | 1:18.37 | 216530 | 222416
13 | 49:25.42 | 3:11.70 | 222417 | 236811
14 | 52:37.37 | 3:21.25 | 236812 | 251911
15 | 55:58.62 | 3:08.63 | 251912 | 266074
16 | 59:07.50 | 5:25.45 | 266075 | 290494
17 | 64:33.20 | 2:06.12 | 290495 | 299956
18 | 66:39.32 | 3:06.18 | 299957 | 313924
19 | 69:45.50 | 2:46.02 | 313925 | 326376
20 | 72:31.52 | 4:36.33 | 326377 | 347109
Range status and errors
Selected range
Filename D:\EAC\Strauss - Die Frau ohne Schatten, Karajan CD2.wav
Peak level 76.9 %
Extraction speed 3.5 X
Range quality 100.0 %
Test CRC 47DE2AE4
Copy CRC 47DE2AE4
Copy OK
No errors occurred
AccurateRip summary
Track 1 accurately ripped (confidence 2) [E94A02D2] (AR v2)
Track 2 accurately ripped (confidence 2) [75212308] (AR v2)
Track 3 accurately ripped (confidence 2) [FE191E9A] (AR v2)
Track 4 accurately ripped (confidence 2) [F778374E] (AR v2)
Track 5 accurately ripped (confidence 2) [064E5406] (AR v2)
Track 6 accurately ripped (confidence 2) [046BF788] (AR v2)
Track 7 accurately ripped (confidence 2) [ABDFAB78] (AR v2)
Track 8 accurately ripped (confidence 2) [AAD497C7] (AR v2)
Track 9 accurately ripped (confidence 2) [E40371A7] (AR v2)
Track 10 accurately ripped (confidence 2) [03FB4834] (AR v2)
Track 11 accurately ripped (confidence 2) [378624EE] (AR v2)
Track 12 accurately ripped (confidence 2) [C2DE5561] (AR v2)
Track 13 accurately ripped (confidence 2) [3875F704] (AR v2)
Track 14 accurately ripped (confidence 2) [475A3706] (AR v2)
Track 15 accurately ripped (confidence 2) [F5E726E1] (AR v2)
Track 16 accurately ripped (confidence 2) [0D996F7D] (AR v2)
Track 17 accurately ripped (confidence 2) [6B3DB4FA] (AR v2)
Track 18 accurately ripped (confidence 2) [80745902] (AR v2)
Track 19 accurately ripped (confidence 2) [A29E2FC2] (AR v2)
Track 20 accurately ripped (confidence 2) [AC6373CB] (AR v2)
All tracks accurately ripped
End of status report
---- CUETools DB Plugin V2.1.3
[CTDB TOCID: dLQIBj2DamsalgaibQbz4kjTtlg-] found, Submit result: unrecognized or virtual drive
[866e52b8] (1/1) Accurately ripped
==== Log checksum 76C8A0B8EE86E36EE900C86F34D2FF6B4546975226258B6727998908ADAE2DDC ====

CD3

Exact Audio Copy V1.0 beta 3 from 29. August 2011
EAC extraction logfile from 5. November 2014, 12:18
Strauss / Die Frau ohne Schatten, Karajan CD3
Used drive : TSSTcorpCDDVDW SE-208AB Adapter: 1 ID: 0
Read mode : Secure
Utilize accurate stream : Yes
Defeat audio cache : Yes
Make use of C2 pointers : No
Read offset correction : 6
Overread into Lead-In and Lead-Out : No
Fill up missing offset samples with silence : Yes
Delete leading and trailing silent blocks : No
Null samples used in CRC calculations : Yes
Used interface : Native Win32 interface for Win NT & 2000
Used output format : Monkey's Audio Lossless Encoder
Selected bitrate : High Lossless Compression
Quality : High
Add ID3 tag : Yes
Command line compressor : C:\Program Files (x86)\Exact Audio Copy\MAC\MAC.exe
TOC of the extracted CD
Track | Start | Length | Start sector | End sector
---------------------------------------------------------
1 | 0:00.00 | 6:44.45 | 0 | 30344
2 | 6:44.45 | 3:24.37 | 30345 | 45681
3 | 10:09.07 | 3:50.25 | 45682 | 62956
4 | 13:59.32 | 8:59.20 | 62957 | 103401
5 | 22:58.52 | 4:10.58 | 103402 | 122209
6 | 27:09.35 | 4:21.42 | 122210 | 141826
7 | 31:31.02 | 6:39.55 | 141827 | 171806
8 | 38:10.57 | 4:34.03 | 171807 | 192359
9 | 42:44.60 | 2:08.05 | 192360 | 201964
10 | 44:52.65 | 2:05.67 | 201965 | 211406
11 | 46:58.57 | 7:23.00 | 211407 | 244631
12 | 54:21.57 | 6:46.63 | 244632 | 275144
13 | 61:08.45 | 3:37.20 | 275145 | 291439
14 | 64:45.65 | 4:49.25 | 291440 | 313139
15 | 69:35.15 | 4:56.30 | 313140 | 335369
16 | 74:31.45 | 2:53.10 | 335370 | 348354
Range status and errors
Selected range
Filename D:\EAC\Strauss - Die Frau ohne Schatten, Karajan CD3.wav
Peak level 72.3 %
Extraction speed 5.3 X
Range quality 100.0 %
Test CRC F2FB3AE6
Copy CRC F2FB3AE6
Copy OK
No errors occurred
AccurateRip summary
Track 1 accurately ripped (confidence 2) [B73EC254] (AR v2)
Track 2 accurately ripped (confidence 2) [C16DE182] (AR v2)
Track 3 accurately ripped (confidence 2) [10B679D7] (AR v2)
Track 4 accurately ripped (confidence 2) [05781741] (AR v2)
Track 5 accurately ripped (confidence 2) [96724A27] (AR v2)
Track 6 accurately ripped (confidence 2) [951672B6] (AR v2)
Track 7 accurately ripped (confidence 2) [CC1105D6] (AR v2)
Track 8 accurately ripped (confidence 2) [7A1FE292] (AR v2)
Track 9 accurately ripped (confidence 2) [B55895CF] (AR v2)
Track 10 accurately ripped (confidence 2) [26320CF3] (AR v2)
Track 11 accurately ripped (confidence 2) [6115F865] (AR v2)
Track 12 accurately ripped (confidence 2) [58B6AB41] (AR v2)
Track 13 accurately ripped (confidence 2) [FE49671E] (AR v2)
Track 14 accurately ripped (confidence 2) [80F5897D] (AR v2)
Track 15 accurately ripped (confidence 2) [CA559C00] (AR v2)
Track 16 accurately ripped (confidence 2) [1DA259E5] (AR v2)
All tracks accurately ripped
End of status report
---- CUETools DB Plugin V2.1.3
[CTDB TOCID: ugyhR41Lc5inBcTRGrSmpZL8foU-] found, Submit result: ugyhR41Lc5inBcTRGrSmpZL8foU- has been confirmed
[2d70a55c] (1/1) Accurately ripped
==== Log checksum 29FBAC6E7262C40DB54873CCCD1B04A7BB4A10EA928F06C3608D2504EA8E827F ====

Содержание индексной карты (.CUE)

CD1

REM GENRE Opera
REM DATE 1964
REM DISCID EB121311
REM COMMENT "ExactAudioCopy v1.0b3"
PERFORMER "Strauss "
TITLE "Die Frau ohne Schatten, Karajan CD1"
FILE "Strauss - Die Frau ohne Schatten, Karajan CD1.ape" WAVE
TRACK 01 AUDIO
TITLE "Act 1: Licht über'm See"
PERFORMER "Strauss "
INDEX 01 00:00:00
TRACK 02 AUDIO
TITLE "Act 1: Amme, wachst du?"
PERFORMER "Strauss "
INDEX 01 05:34:55
TRACK 03 AUDIO
TITLE "Act 1: Ist mein Liebster dahin?"
PERFORMER "Strauss "
INDEX 01 11:23:12
TRACK 04 AUDIO
TITLE "Act 1: Wie soll ich denn nicht weinen?"
PERFORMER "Strauss "
INDEX 01 14:54:72
TRACK 05 AUDIO
TITLE "Act 1: Amme, um alles, wo find'ich den Schatten?"
PERFORMER "Strauss "
INDEX 01 17:02:05
TRACK 06 AUDIO
TITLE "Act 1: (Verwandlung)"
PERFORMER "Strauss "
INDEX 01 21:46:00
TRACK 07 AUDIO
TITLE "Act 1: Dieb! Da nimm! / 'Reiss ihn nach hinten' / 'Zu Hilfe, Brüder'"
PERFORMER "Strauss "
INDEX 01 23:32:17
TRACK 08 AUDIO
TITLE "Act 1: Sie aus dem Hause, und das für immer"
PERFORMER "Strauss "
INDEX 01 25:12:40
TRACK 09 AUDIO
TITLE "Act 1: Dritthalb Jahr bin ich dein Weib"
PERFORMER "Strauss "
INDEX 01 33:28:45
TRACK 10 AUDIO
TITLE "Act 1: Was wollt' ich hier?"
PERFORMER "Strauss "
INDEX 01 38:31:40
TRACK 11 AUDIO
TITLE "Act 1: Ach. Herrin, süsse Herrin!"
PERFORMER "Strauss "
INDEX 01 43:40:42
TRACK 12 AUDIO
TITLE "Act 1: Hat es dich blutige Tränen gekostet"
PERFORMER "Strauss "
INDEX 01 47:12:47
TRACK 13 AUDIO
TITLE "Act 1: Mutter, Mutter, lass uns nach Hause"
PERFORMER "Strauss "
INDEX 01 52:27:05
TRACK 14 AUDIO
TITLE "Act 1: 'Trag' ich die Ware selber zum Markt"
PERFORMER "Strauss "
INDEX 01 54:04:47
TRACK 15 AUDIO
TITLE "Act 1: Dieb! Da nimm! - Reiss ihn nach hinten - Zu Hilfe, Brüder"
PERFORMER "Strauss "
INDEX 00 61:27:38
INDEX 01 61:34:37
TRACK 16 AUDIO
TITLE "Act 1: Sie aus dem Hause, und das für immer"
PERFORMER "Strauss "
INDEX 01 63:57:72
TRACK 17 AUDIO
TITLE "Act 1: Dritthalb Jahr bin ich dein Weib"
PERFORMER "Strauss "
INDEX 01 72:44:07

CD2

REM GENRE Opera
REM DATE 1964
REM DISCID 30121414
REM COMMENT "ExactAudioCopy v1.0b3"
PERFORMER "Strauss "
TITLE "Die Frau ohne Schatten, Karajan CD2"
FILE "Strauss - Die Frau ohne Schatten, Karajan CD2.ape" WAVE
TRACK 01 AUDIO
TITLE "Act 2: Komm bald wieder nach Haus, mein Gebieter"
PERFORMER "Strauss "
INDEX 01 00:00:00
TRACK 02 AUDIO
TITLE "Act 2: Was ist nun deine Rede, du Prinzessin"
PERFORMER "Strauss "
INDEX 01 03:13:30
TRACK 03 AUDIO
TITLE "Act 2: (Verwandlung)"
PERFORMER "Strauss "
INDEX 01 08:14:32
TRACK 04 AUDIO
TITLE "Act 2: Falke, Falke, du Wiedergefundener"
PERFORMER "Strauss "
INDEX 01 12:19:62
TRACK 05 AUDIO
TITLE "Act 2: [Verwandlung]"
PERFORMER "Strauss "
INDEX 01 20:49:57
TRACK 06 AUDIO
TITLE "Act 2: Sieh - Amme - sieh"
PERFORMER "Strauss "
INDEX 01 23:33:05
TRACK 07 AUDIO
TITLE "Act 2: Wehe, mein Mann"
PERFORMER "Strauss "
INDEX 01 28:52:00
TRACK 08 AUDIO
TITLE "Act 2: Es gibt derer, die haben immer Zeit"
PERFORMER "Strauss "
INDEX 01 33:42:47
TRACK 09 AUDIO
TITLE "Act 2: Schlange, was hab' ich mit dir zu schaffen!"
PERFORMER "Strauss "
INDEX 01 37:04:52
TRACK 10 AUDIO
TITLE "Act 2: Ein Handwerk verstehst du sicher nicht"
PERFORMER "Strauss "
INDEX 01 40:11:65
TRACK 11 AUDIO
TITLE "Act 2: Aber ich bin nicht in deiner Hand"
PERFORMER "Strauss "
INDEX 01 44:47:67
TRACK 12 AUDIO
TITLE "Act 2: Das Weib ist irre"
PERFORMER "Strauss "
INDEX 01 48:07:05
TRACK 13 AUDIO
TITLE "Act 2: Barak, ich hab'es nicht getan"
PERFORMER "Strauss "
INDEX 01 49:25:42
TRACK 14 AUDIO
TITLE "Act 2: Es gibt derer, die haben immer Zeit"
PERFORMER "Strauss "
INDEX 00 52:32:50
INDEX 01 52:37:37
TRACK 15 AUDIO
TITLE "Act 2: Schlange, was hab' ich mit dir zu schaffen!"
PERFORMER "Strauss "
INDEX 01 55:58:62
TRACK 16 AUDIO
TITLE "Act 2: Ein Handwerk verstehst du sicher nicht"
PERFORMER "Strauss "
INDEX 01 59:07:50
TRACK 17 AUDIO
TITLE "Act 2: Wer da?"
PERFORMER "Strauss "
INDEX 01 64:33:20
TRACK 18 AUDIO
TITLE "Act 2: Es dunkelt, dass ich nicht sehe zur Arbeit"
PERFORMER "Strauss "
INDEX 00 66:33:55
INDEX 01 66:39:32
TRACK 19 AUDIO
TITLE "Act 2: Es gibt derer, die bleiben immer gelassen..."
PERFORMER "Strauss "
INDEX 01 69:45:50
TRACK 20 AUDIO
TITLE "Act 2: Das Weib ist irre"
PERFORMER "Strauss "
INDEX 01 72:31:52

CD3

REM GENRE Opera
REM DATE 1964
REM DISCID ED122410
REM COMMENT "ExactAudioCopy v1.0b3"
PERFORMER "Strauss "
TITLE "Die Frau ohne Schatten, Karajan CD3"
FILE "Strauss - Die Frau ohne Schatten, Karajan CD3.ape" WAVE
TRACK 01 AUDIO
TITLE "Act 3: Schweigt doch, ihr Stimmen!"
PERFORMER "Strauss "
INDEX 01 00:00:00
TRACK 02 AUDIO
TITLE "Act 3: Mir anvertraut, dass ich sie hege"
PERFORMER "Strauss "
INDEX 01 06:44:45
TRACK 03 AUDIO
TITLE "Act 3: Auf, geh nach oben, Mann"
PERFORMER "Strauss "
INDEX 01 10:09:07
TRACK 04 AUDIO
TITLE "Act 3: Fort von hier!"
PERFORMER "Strauss "
INDEX 01 13:59:32
TRACK 05 AUDIO
TITLE "Act 3: Wehe, mein Kind"
PERFORMER "Strauss "
INDEX 01 22:58:52
TRACK 06 AUDIO
TITLE "Act 3: Vater, bist du's?"
PERFORMER "Strauss "
INDEX 01 27:09:35
TRACK 07 AUDIO
TITLE "Act 3: Goldenen Trank"
PERFORMER "Strauss "
INDEX 01 31:31:02
TRACK 08 AUDIO
TITLE "Act 3:Wenn, das Herz aus Kristall zerbricht in einem Schrei"
PERFORMER "Strauss "
INDEX 01 38:10:57
TRACK 09 AUDIO
TITLE "Act 3: Hört, wir gebieten euch"
PERFORMER "Strauss "
INDEX 01 42:44:60
TRACK 10 AUDIO
TITLE "Act 3: Steh nur, ich finde dich"
PERFORMER "Strauss "
INDEX 01 44:52:65
TRACK 11 AUDIO
TITLE "Act 3: Nun will ich jubeln"
PERFORMER "Strauss "
INDEX 01 46:58:57
TRACK 12 AUDIO
TITLE "Act 3: Schweigt doch, ihr Stimmen!"
PERFORMER "Strauss "
INDEX 00 54:14:52
INDEX 01 54:21:57
TRACK 13 AUDIO
TITLE "Act 3: Mir anvertraut, dass ich sie hege"
PERFORMER "Strauss "
INDEX 01 61:08:45
TRACK 14 AUDIO
TITLE "Act 3: Auf, geh nach oben, Mann"
PERFORMER "Strauss "
INDEX 01 64:45:65
TRACK 15 AUDIO
TITLE "Act 3: Nun will ich jubeln"
PERFORMER "Strauss "
INDEX 00 69:28:69
INDEX 01 69:35:15
TRACK 16 AUDIO
TITLE "Act 3: Vater, dir drohet nichts"
PERFORMER "Strauss "
INDEX 01 74:31:45



Показать сообщения:    

Текущее время: 03-Дек 14:38

Часовой пояс: UTC + 3


Вы не можете начинать темы
Вы не можете отвечать на сообщения
Вы не можете редактировать свои сообщения
Вы не можете удалять свои сообщения
Вы не можете голосовать в опросах
Вы не можете прикреплять файлы к сообщениям
Вы не можете скачивать файлы