(Baroque Cantata) Bach J.M. - Cantatas: Friedens-Cantata * Das Volk, ... * Herr, wie sind... * Mache dich auf,... * Wie lieblich sind.... (Crook, Abele, Winter, Schmithusen - Das Kleine Konzert, Max) - 2000, APE (image+.cue) lossless


 

[Цитировать]

Johann Michael Bach (1745-1820) - Cantaten
Жанр: Baroque Cantata
Страна-производитель диска: Germany
Год издания диска: 2000
Издатель (лейбл): CPO
Номер по каталогу: 999 671-2
Дата записи: 1997-1998
Аудиокодек: APE
Тип рипа: image+.cue
Битрейт аудио: lossless
Продолжительность: 74'32
Источник: собственный рип
Наличие сканов в содержимом раздачи: да
Треклист:
Friedens-Cantata
1. Maestoso, Jehova, Vater der Wesen
2. Larghetto, Der Herr schauet von seiner heiligen Höhe
3. Allegro con spirito, Es kämpft in Feuerglut der tapfern Krieger Scharen
4. Andante, Noch fraß das Würgerschwert der Zukunft schönste Blüten
5. Larghetto, Herr deine Güte reichet so weit
6. Adagio non molto, Nun säuselt durch das stille Tal
7. Andante, Violen sprießen unter Tritten
8. Maestoso, Heilig ist Gott, der Herre Zebaoth
9. Adagio ma non tanto, Gott des Friedens, Gott der Liebe
10. Andante, Heiliger Schauer durchdringet die Seele
11. Fuga HallelujaCantata, Das Volk, so im Finstern wandelt
12. Allegro con spirito, Das Volk, so im Finstern wandelt, siehet ein großes Licht
13. Andante, Ehre sei Gott in der Höhe
14. Andante affettuoso, Heil der Armen, Trost der SeelenCantata, Herr, wie sind deine Werke so groß und viel
15. Allegro maestoso, Herr, wie sind deine Werke so groß und viel
16. O Schöpfer, jedes deiner Werke macht deiner Größe Ruhm bekannt
17. Adagio, Gottes reiche Segensspuren öffnen sich auf allen FlurenCantata, Mache dich auf, werde licht
18. Allegro maestoso, Mache dich auf, werde licht
19. Allegro moderato, Dein Licht geht auf, die Weisen sehn es scheinen
20. Allegro molto, Füllt den Tempel, frohe LiederCantata, Wie lieblich sind auf den Bergen die Füße der Boten
21. Allegretto, Wie lieblich sind auf den Bergen die Füße der Boten
22. Andante, Die Zeit ist da, das Heil erschienen
23. Allegro con spirito, O suchet nicht in eitler Grösse
Исполнители:
Johann Michael Bach - Cantaten
Ekkehard Abele - Bass
Howard Crook - Tenor
Klaus Mertens - Bass
Bernard Scheffel - Tenor
Ingrid Schmithusen - Soprano
Claudia Schubert - Alto
Gotthold Schwarz - Bass
Veronika Winter - Soprano
Rheinische Kantorei
Das kleine Konzert
Hermann Max

Лог создания рипа

Exact Audio Copy V1.0 beta 3 from 29. August 2011
EAC extraction logfile from 18. October 2014, 12:27
Bach J.M. / Cantatas (Friedens Cantata etc.), Max
Used drive : TSSTcorpCDDVDW SE-208AB Adapter: 1 ID: 0
Read mode : Secure
Utilize accurate stream : Yes
Defeat audio cache : Yes
Make use of C2 pointers : No
Read offset correction : 6
Overread into Lead-In and Lead-Out : No
Fill up missing offset samples with silence : Yes
Delete leading and trailing silent blocks : No
Null samples used in CRC calculations : Yes
Used interface : Native Win32 interface for Win NT & 2000
Used output format : Monkey's Audio Lossless Encoder
Selected bitrate : High Lossless Compression
Quality : High
Add ID3 tag : Yes
Command line compressor : C:\Program Files (x86)\Exact Audio Copy\MAC\MAC.exe
TOC of the extracted CD
Track | Start | Length | Start sector | End sector
---------------------------------------------------------
1 | 0:00.00 | 2:08.67 | 0 | 9666
2 | 2:08.67 | 3:33.08 | 9667 | 25649
3 | 5:42.00 | 4:24.30 | 25650 | 45479
4 | 10:06.30 | 1:02.30 | 45480 | 50159
5 | 11:08.60 | 3:56.00 | 50160 | 67859
6 | 15:04.60 | 8:33.45 | 67860 | 106379
7 | 23:38.30 | 1:21.65 | 106380 | 112519
8 | 25:00.20 | 3:34.55 | 112520 | 128624
9 | 28:35.00 | 5:20.00 | 128625 | 152624
10 | 33:55.00 | 2:19.50 | 152625 | 163099
11 | 36:14.50 | 2:41.25 | 163100 | 175199
12 | 38:56.00 | 3:30.54 | 175200 | 191003
13 | 42:26.54 | 0:57.36 | 191004 | 195314
14 | 43:24.15 | 4:56.60 | 195315 | 217574
15 | 48:21.00 | 2:32.20 | 217575 | 228994
16 | 50:53.20 | 0:32.55 | 228995 | 231449
17 | 51:26.00 | 5:43.00 | 231450 | 257174
18 | 57:09.00 | 3:01.40 | 257175 | 270789
19 | 60:10.40 | 1:33.55 | 270790 | 277819
20 | 61:44.20 | 2:38.55 | 277820 | 289724
21 | 64:23.00 | 3:21.65 | 289725 | 304864
22 | 67:44.65 | 1:00.50 | 304865 | 309414
23 | 68:45.40 | 6:04.35 | 309415 | 336749
Range status and errors
Selected range
Filename D:\EAC\Bach J.M. - Cantatas (Friedens Cantata etc.), Max.wav
Peak level 99.9 %
Extraction speed 5.2 X
Range quality 100.0 %
Test CRC 19E12412
Copy CRC 19E12412
Copy OK
No errors occurred
AccurateRip summary
Track 1 accurately ripped (confidence 2) [11CCF0E2] (AR v2)
Track 2 accurately ripped (confidence 2) [6F863985] (AR v2)
Track 3 accurately ripped (confidence 2) [6FEC582E] (AR v2)
Track 4 accurately ripped (confidence 2) [ADBD1F55] (AR v2)
Track 5 accurately ripped (confidence 2) [8295561F] (AR v2)
Track 6 accurately ripped (confidence 2) [3043C520] (AR v2)
Track 7 accurately ripped (confidence 2) [3148C2E3] (AR v2)
Track 8 accurately ripped (confidence 2) [E2B36293] (AR v2)
Track 9 accurately ripped (confidence 2) [0C927155] (AR v2)
Track 10 accurately ripped (confidence 2) [751C858C] (AR v2)
Track 11 accurately ripped (confidence 2) [B29707AD] (AR v2)
Track 12 accurately ripped (confidence 2) [049F2B46] (AR v2)
Track 13 accurately ripped (confidence 2) [498EC72D] (AR v2)
Track 14 accurately ripped (confidence 2) [23BEC2EC] (AR v2)
Track 15 accurately ripped (confidence 2) [3DCDE2B6] (AR v2)
Track 16 accurately ripped (confidence 2) [B0D3423A] (AR v2)
Track 17 accurately ripped (confidence 2) [3F514A70] (AR v2)
Track 18 accurately ripped (confidence 2) [E72F2079] (AR v2)
Track 19 accurately ripped (confidence 2) [9B33EC65] (AR v2)
Track 20 accurately ripped (confidence 2) [AE250B88] (AR v2)
Track 21 accurately ripped (confidence 2) [345848CE] (AR v2)
Track 22 accurately ripped (confidence 2) [C11C3E97] (AR v2)
Track 23 accurately ripped (confidence 2) [511CD8D4] (AR v2)
All tracks accurately ripped
End of status report
---- CUETools DB Plugin V2.1.3
[CTDB TOCID: soqV1gdLw7RdrmGeuSHwlbk2sKM-] found, Submit result: soqV1gdLw7RdrmGeuSHwlbk2sKM- has been confirmed
[aa55a6c7] (2/2) Accurately ripped
==== Log checksum 41257AFA94D61DC24FB0B9901174BB0BE03BF31EE6AA2722DEE13AB337DDA2AA ====

Содержание индексной карты (.CUE)

REM GENRE Vocal
REM DATE 1997
REM DISCID 31118A17
REM COMMENT "ExactAudioCopy v1.0b3"
CATALOG 0761203967124
PERFORMER "Bach J.M."
TITLE "Cantatas (Friedens Cantata etc.), Max"
FILE "Bach J.M. - Cantatas (Friedens Cantata etc.), Max.ape" WAVE
TRACK 01 AUDIO
TITLE "Friedenskantate - 01. Accompagnato - Jehovam Vater der Wesen"
PERFORMER "Bach J.M."
ISRC DEB209767101
INDEX 01 00:00:00
TRACK 02 AUDIO
TITLE "Friedenskantate - 02. Coro - Der Herr schauet"
PERFORMER "Bach J.M."
ISRC DEB209767101
INDEX 01 02:08:67
TRACK 03 AUDIO
TITLE "Friedenskantate - 03. Aria - Es kämpft in Feuerglut"
PERFORMER "Bach J.M."
ISRC DEB209767103
INDEX 01 05:42:00
TRACK 04 AUDIO
TITLE "Friedenskantate - 04. Recitativo - Noch fraß das Würgeschwert"
PERFORMER "Bach J.M."
ISRC DEB209767104
INDEX 01 10:06:30
TRACK 05 AUDIO
TITLE "Friedenskantate - 05. Coro - Herr deine Güte reichet so weit"
PERFORMER "Bach J.M."
ISRC DEB209767105
INDEX 01 11:08:60
TRACK 06 AUDIO
TITLE "Friedenskantate - 06. Duetto - Nun säuselt durch das stille Tal"
PERFORMER "Bach J.M."
ISRC DEB209767106
INDEX 01 15:04:60
TRACK 07 AUDIO
TITLE "Friedenskantate - 07. Recitativo - Violen sprießen unter Tritten"
PERFORMER "Bach J.M."
ISRC DEB209767107
INDEX 01 23:38:30
TRACK 08 AUDIO
TITLE "Friedenskantate - 08. Coro - Heilig ist Gott, der Herr Zebaoth"
PERFORMER "Bach J.M."
ISRC DEB209767108
INDEX 01 25:00:20
TRACK 09 AUDIO
TITLE "Friedenskantate - 09. Aria - Gott des Friedens, Gott der Liebe"
PERFORMER "Bach J.M."
ISRC DEB209767109
INDEX 01 28:35:00
TRACK 10 AUDIO
TITLE "Friedenskantate - 10. Recitativo - Heiliger Schauer durchdringet"
PERFORMER "Bach J.M."
ISRC DEB209767110
INDEX 01 33:55:00
TRACK 11 AUDIO
TITLE "Friedenskantate - 11. Coro - Halleluja"
PERFORMER "Bach J.M."
ISRC DEB209767111
INDEX 01 36:14:50
TRACK 12 AUDIO
TITLE "Das Volk, so im Finstern wandelt - 1. Coro"
PERFORMER "Bach J.M."
ISRC DEB209767112
INDEX 00 38:48:00
INDEX 01 38:56:00
TRACK 13 AUDIO
TITLE "Das Volk, so im Finstern wandelt - 2. Recitativo - Ehre sei Gott in der Höhe"
PERFORMER "Bach J.M."
ISRC DEB209767113
INDEX 01 42:26:54
TRACK 14 AUDIO
TITLE "Das Volk, so im Finstern wandelt - 3. Aria . Heil der Armen, Trost der Seelen"
PERFORMER "Bach J.M."
ISRC DEB209767114
INDEX 01 43:24:15
TRACK 15 AUDIO
TITLE "Herr, wie sind deine Werke - 1. Coro"
PERFORMER "Bach J.M."
ISRC DEB209767115
INDEX 00 48:10:00
INDEX 01 48:21:00
TRACK 16 AUDIO
TITLE "Herr, wie sind deine Werke - 2. Recitativo - O Schöpfer, jedes deiner Werke"
PERFORMER "Bach J.M."
ISRC DEB209767116
INDEX 01 50:53:20
TRACK 17 AUDIO
TITLE "Herr, wie sind deine Werke - 3. Aria - Gottes reiche Segensspuren"
PERFORMER "Bach J.M."
ISRC DEB209767117
INDEX 01 51:26:00
TRACK 18 AUDIO
TITLE "Mache dich auch, werde licht - 1. Coro"
PERFORMER "Bach J.M."
ISRC DEB209767118
INDEX 00 56:59:00
INDEX 01 57:09:00
TRACK 19 AUDIO
TITLE "Mache dich auch, werde licht - 2. Recitativo - Dein Licht geht auf"
PERFORMER "Bach J.M."
ISRC DEB209767119
INDEX 01 60:10:40
TRACK 20 AUDIO
TITLE "Mache dich auch, werde licht - 3. Aria - Füllt den Tempel, frohe Lieder"
PERFORMER "Bach J.M."
ISRC DEB209767120
INDEX 01 61:44:20
TRACK 21 AUDIO
TITLE "Wie lieblich sind auf den Bergen - 1. Coro"
PERFORMER "Bach J.M."
ISRC DEB209767121
INDEX 00 64:17:00
INDEX 01 64:23:00
TRACK 22 AUDIO
TITLE "Wie lieblich sind auf den Bergen - 2 . Recitativo - Die Zeit ist da "
PERFORMER "Bach J.M."
ISRC DEB209767121
INDEX 01 67:44:65
TRACK 23 AUDIO
TITLE "Wie lieblich sind auf den Bergen - 3. Aria - O suchet nicht in eitler Größe"
PERFORMER "Bach J.M."
ISRC DEB209767123
INDEX 01 68:45:40



Показать сообщения:    

Текущее время: 07-Дек 17:30

Часовой пояс: UTC + 3


Вы не можете начинать темы
Вы не можете отвечать на сообщения
Вы не можете редактировать свои сообщения
Вы не можете удалять свои сообщения
Вы не можете голосовать в опросах
Вы не можете прикреплять файлы к сообщениям
Вы не можете скачивать файлы