Жан-Поль Бельмондо о пьесе Червь сомнения, или Блоха в ухе / La puce a l'oreille de Georges Feydeau par son interprete Jean-Paul Belmondo (Филипп Жуссран / Philippe Jousserand) [2002, кинематограф, DVDRip-AVC] Original (Fre) + Sub Rus (Lisok)


Статистика раздачи [Обновить пиров]
Размер:  351 MB   |    Зарегистрирован:  8 месяцев 19 дней   |    Скачан:  0 раз

Полного источника не было: Никогда

Личеров:  3  [  0 KB/s  ]   Подробная статистика пиров
 
   
 
 
 

[Цитировать]

Жан-Поль Бельмондо о пьесе "Червь сомнения, или Блоха в ухе"
La puce à l'oreille de Georges Feydeau par son interprète Jean-Paul Belmondo- Дата/Год выпуска: 2002
Страна: Франция
Жанр: документальный, кинематограф
Продолжительность: 00:18:12
Перевод: Субтитры
Русские субтитры: естьФормат субтитров: softsub (SRT)
Доп. информация о субтитрах: перевод Lisok , инициатор Алексей Проскуряков aka Aleks Punk
Оригинальная аудиодорожка: французский
Режиссер: Филипп Жуссран / Philippe Jousserand
Описание: Интервью Жана-Поля Бельмондо по поводу выхода на DVD спектакля "Червь сомнения, или Блоха в ухе" (1997).
Доп. информация: Бонус из DVD9. За предоставленный материал благодарность Aleks Punk

качество: DVDRip-AVC
формат: MKV
Видео: AVC (H.264), 704x400 (16:9), 25 fps, ~2500 kbps avg, 0.355 bit/pixel
Аудио: AC3, 2 ch, 48 kHz, ~192.00 kbps avg

Пример субтитров

1
00:00:00,040 --> 00:00:02,760
"БЛОХА В УХЕ" Жоржа Фейдо
устами исполнителя Жана-Поля Бельмондо
2
00:00:02,900 --> 00:00:05,480
Как вы открыли для себя
театр Фейдо?
3
00:00:05,760 --> 00:00:09,160
Театр Фейдо я открыл для себя
через "Комеди Франсез".
4
00:00:09,160 --> 00:00:11,820
Я учился на актёрском
факультете Консерватории.
5
00:00:12,250 --> 00:00:17,200
Да и раньше этого, я учился
на курсах Реймона Жерара.
6
00:00:17,200 --> 00:00:20,410
Я частенько ходил в те времена
в "Комеди Франсез" и в Театр "Одеон".
7
00:00:20,410 --> 00:00:22,920
Там, естественно,
играли много классики.
8
00:00:22,920 --> 00:00:27,290
Мне повезло увидеть там
"Покойную мать мадам" Фейдо.
9
00:00:27,290 --> 00:00:30,840
Это первое, что я увидел.
Это неотразимая одноактная пьеса,
10
00:00:30,960 --> 00:00:33,740
Там играли Жак Шарон, Леду...
11
00:00:33,740 --> 00:00:36,890
И Фейдо в той манере,
в какой играл Шарон...
12
00:00:36,890 --> 00:00:40,510
А я считаю, что Шарон - актёр,
который лучше всего играл Фейдо,
13
00:00:40,510 --> 00:00:42,720
который всё в Фейдо понял.
14
00:00:42,840 --> 00:00:45,100
Поэтому когда я поступил
в Консерваторию,
15
00:00:45,100 --> 00:00:48,570
я работал над Фейдо.
И я нашёл одну пьесу,
16
00:00:48,570 --> 00:00:50,170
очень мало известную.
17
00:00:50,240 --> 00:00:53,340
По-моему, это его 1-я или 2-я
одноактная пьеса.
18
00:00:53,340 --> 00:00:55,160
Она называлась
"Любовь и пианино".
19
00:00:55,160 --> 00:00:57,290
Я сдавал с ней
выпускные экзамены.
20
00:00:57,290 --> 00:01:00,240
И все даже подумали,
что я сам сочинил реплики.

MediaInfo

Общее
Уникальный идентификатор : 245879113734549134869715295806386681621 (0xB8FA9843C4EBE9DAB87B617074353715)
Полное имя : E:\My Torrents 2\[apreder]Belmondo_et_le_theatre_de_Georges_Feydeau(2002)DVDRip.mkv
Формат : Matroska
Версия формата : Version 2
Размер файла : 351 Мбайт
Продолжительность : 18 м.
Общий поток : 2694 Кбит/сек
Дата кодирования : UTC 2014-11-16 17:16:16
Программа кодирования : mkvmerge v7.3.0 ('Nouages') 64bit built on Oct 22 2014 18:53:34
Библиотека кодирования : libebml v1.3.0 + libmatroska v1.4.1
Видео
Идентификатор : 1
Формат : AVC
Формат/Информация : Advanced Video Codec
Профиль формата : High@L4.1
Параметр CABAC формата : Да
Параметр ReFrames формата : 16 кадров
Идентификатор кодека : V_MPEG4/ISO/AVC
Продолжительность : 18 м.
Битрейт : 2500 Кбит/сек
Ширина : 704 пикселя
Высота : 400 пикселей
Соотношение сторон : 16:9
Режим частоты кадров : Постоянный
Частота кадров : 25,000 кадров/сек
Цветовое пространство : YUV
Субдискретизация насыщенности : 4:2:0
Битовая глубина : 8 бит
Тип развёртки : Прогрессивная
Бит/(Пиксели*Кадры) : 0.355
Размер потока : 319 Мбайт (91%)
Библиотека кодирования : x264 core 142 r2431 ac76440
Настройки программы : cabac=1 / ref=16 / deblock=1:-1:-1 / analyse=0x3:0x133 / me=umh / subme=10 / psy=1 / psy_rd=1.00:0.15 / mixed_ref=1 / me_range=24 / chroma_me=1 / trellis=2 / 8x8dct=1 / cqm=0 / deadzone=21,11 / fast_pskip=1 / chroma_qp_offset=-3 / threads=6 / lookahead_threads=1 / sliced_threads=0 / nr=0 / decimate=1 / interlaced=0 / bluray_compat=0 / constrained_intra=0 / bframes=8 / b_pyramid=2 / b_adapt=2 / b_bias=0 / direct=3 / weightb=1 / open_gop=0 / weightp=2 / keyint=250 / keyint_min=25 / scenecut=40 / intra_refresh=0 / rc_lookahead=60 / rc=2pass / mbtree=1 / bitrate=2500 / ratetol=1.0 / qcomp=0.60 / qpmin=0 / qpmax=69 / qpstep=4 / cplxblur=20.0 / qblur=0.5 / vbv_maxrate=62500 / vbv_bufsize=78125 / nal_hrd=none / filler=0 / ip_ratio=1.40 / aq=1:1.00
Default : Да
Forced : Нет
Аудио
Идентификатор : 2
Формат : AC-3
Формат/Информация : Audio Coding 3
Расширение режима : CM (complete main)
Параметр Endianness формата : Big
Идентификатор кодека : A_AC3
Продолжительность : 18 м.
Вид битрейта : Постоянный
Битрейт : 192 Кбит/сек
Каналы : 2 канала
Расположение каналов : Front: L R
Частота : 48,0 КГц
Битовая глубина : 16 бит
Метод сжатия : С потерями
Размер потока : 25,0 Мбайт (7%)
Язык : French
Default : Да
Forced : Нет
Текст
Идентификатор : 3
Формат : UTF-8
Идентификатор кодека : S_TEXT/UTF8
Идентификатор кодека/Информация : UTF-8 Plain Text
Язык : Russian
Default : Да
Forced : Нет

Скриншоты

Резервные скриншоты

-[1'917]
[teatrix.ru].t19475.torrent 
Торрент: Зарегистрирован [ 2016-03-18 12:45 ] · DE1F4B5F8D68FAA0E3F34AA7C658C00CECA6FE14

Скачать .torrent

Скачать

14 KB

Статус: проверено
Скачан: 0 раз
Размер: 351 MB
terms.php



Показать сообщения:    

Текущее время: 06-Дек 15:14

Часовой пояс: UTC + 3


Вы не можете начинать темы
Вы не можете отвечать на сообщения
Вы не можете редактировать свои сообщения
Вы не можете удалять свои сообщения
Вы не можете голосовать в опросах
Вы не можете прикреплять файлы к сообщениям
Вы можете скачивать файлы