(Classical) [LP] [24/48] George Enescu/Джордже Энеску - Из Сокровищницы Мирового Исполнительского Искусства (J.S.Bach, G.Pugnani, F.Kreisler, E.Chausso, R.Wagner) - 1980, FLAC (tracks+.cue)


Статистика раздачи [Обновить пиров]
Размер:  242 MB   |    Зарегистрирован:  8 месяцев 21 день   |    Скачан:  0 раз

Полного источника не было: Никогда

 
   
 
 
 

[Цитировать]

Джордже Энеску - Из Сокровищницы Мирового Исполнительского Искусства
Жанр: Classical
Носитель: LP
Год выпуска: 1980
Лейбл: Melodya
Страна-производитель: USSR
Аудио кодек: FLAC
Тип рипа: tracks+.cue
Формат записи: 32/192
Формат раздачи: 24/48
Продолжительность: 45 min
Источник оцифровки: автором раздачи
Код класса состояния винила: Mint
Устройство воспроизведения: Электроника ЭП 017С
Головка звукоснимателя: Audio-Technica AT95
Предварительный усилитель: Бриг-001
АЦП: VIA HD audio device
Программа-оцифровщик: Izotope RX III Advanced
Обработка: Manual-Треклист:
Side One:
01. J.S.Bach - Adagio from Sonata N 1
In G minor for Solo Violin, BWV 1001
Concerto for Two Violins and orchestra
In D Minor BWV 1043

02. J.S.Bach - Vivace
03. J.S.Bach - Largo ma non fanfo
04. J.S.Bach - Al'egro
Yehudi Menuhim, 1-st violin (2)
Orchestra of the Societe des concerts
of the Paris Conservatorie

Pierre Monteaux, conductor
Side Two:
05. G.Pugnani - Largo espressivo (arranged by A. Moffat)
06. F.Kreisler - Tempo di menuetto (in the style of Pugnani)
07. E.Chausso - Poeme, op 25
08. R.Wagner - Albumblatt
Piano part
S. Schlussel (2), E. Harris (3)

Спектр+АЧХ+Уровень записи


DR=12

foobar2000 1.1.10 / Dynamic Range Meter 1.1.1
log date: 2014-11-16 22:02:06
--------------------------------------------------------------------------------
Analyzed: George Enescu / Violin
--------------------------------------------------------------------------------
DR Peak RMS Duration Track
--------------------------------------------------------------------------------
DR11 -8.07 dB -23.19 dB 4:23 ?-J.S.Bach - Adagio from Sonata N 1
DR13 -7.15 dB -22.30 dB 4:01 ?-J.S.Bach - Vivace
DR13 -9.82 dB -25.99 dB 6:24 ?-J.S.Bach - Largo ma non fanfo
DR12 -6.83 dB -21.77 dB 4:55 ?-J.S.Bach - Al'egro
DR13 -11.42 dB -28.23 dB 3:32 ?-G.Pugnani - Largo espressivo (arranged by A. Moffat)
DR12 -6.01 dB -21.56 dB 3:13 ?-F.Kreisler - Tempo di menuetto (in the style of Pugnani)
DR12 -4.52 dB -21.43 dB 15:18 ?-E.Chausso - Poeme, op 25
DR10 -6.13 dB -19.41 dB 3:12 ?-R.Wagner - Albumblatt
--------------------------------------------------------------------------------
Number of tracks: 8
Official DR value: DR12
Samplerate: 48000 Hz
Channels: 1
Bits per sample: 24
Bitrate: 697 kbps
Codec: FLAC
================================================================================

Back,Inner & Disc





Доп. информация: Вторая сторона - записи с патефонного пластинки - чут чут шум от этого
[teatrix.ru].t19477.torrent 
Торрент: Зарегистрирован [ 2016-03-18 12:45 ] · 449EE09AA25E3D4E3512D3D4700BF2BC34956794

Скачать .torrent

Скачать

20 KB

Статус: проверено
Скачан: 0 раз
Размер: 242 MB
terms.php



Быстрый ответ

Имя:

      
Для отправки сообщений необходимо включить JavaScript
Показать сообщения:    

Текущее время: 08-Дек 23:06

Часовой пояс: UTC + 3


Вы можете начинать темы
Вы можете отвечать на сообщения
Вы не можете редактировать свои сообщения
Вы не можете удалять свои сообщения
Вы не можете голосовать в опросах
Вы не можете прикреплять файлы к сообщениям
Вы можете скачивать файлы