Формула памяти (Александр Кривонос, Марек Новицкий) [1982 г., драма, фильм-спектакль, TVRip]


 

[Цитировать]

Формула памяти (2 серии) Название театра: Московский драматический театр им. А.С.Пушкина.
Год выпуска: 1982.
Жанр: драма, фильм-спектакль.
Продолжительность: 01:05:54 + 01:11:12 (02:17:06).
Режиссеры: Александр Кривонос, Марек Новицкий.
В ролях:
Архипов - народный артист СССР Иван Соловьев,
Перфильев - Игорь Васильев,
Лена Вартанян - Ирина Акулова,
Секретарь Горкома - народный артист СССР Олег Ефремов,
Гурьянов - Кирилл Датешидзе,
Стекольщиков - народный артист СССР Иван Дмитриев,
Светлова - народная артистка РСФСР Зинаида Шарко,
Галя Перфильева - Галина Баженова,
Вера Валентиновна - заслуженная артистка РСФСР Наталья Орлова,
Светлова - народная артистка РСФСР Нина Мамаева,
Калашников - Сергей Заморев,
Фрайман - Михаил Данилов,
Школьников - заслуженный артист РСФСР Юрий Машкин,
Маргарита Федоровна - Зинаида Афанасенко,
Отец Лены - заслуженный артист РСФСР Михаил Хижняков,
Сергей Иванович - Геннадий Ложкин,
Терентьев - заслуженный артист РСФСР Николай Карамышев,
Безымянный - Анатолий Гаричев,
Тамара - Ирина Цветкова,
Старик - Николай Крюков
Кроули - Сергей Полежаев,
Переводчики - М.Барковская, Ю.Третьяков.
Описание:
По мотивам одноименного романа Бориса Никольского.
Под руководством академика Архипова ведутся исследования в области памяти. Ему, как и многим другим мыслящим людям, небезразлично, в каких целях могут быть использованы научные открытия и насколько они современны.

Дополнительная информация:
Страна: СССР .
Выпущено: Лентелефильм.
Автор: Борис Никольский.
Режиссер спектакля: Александр Кривонос.
Режиссер телеверсии: Марек Новицкий.
Оператор-постановщик: Борис Никольский.
Композитор: заслуженный деятель искусств России Георгий Фиртич.
Художник: Татьяна Ураевская.

Релиз

Качество видео:...TVRip
Формат:.................AVI
Видео:..688x512 (1.34:1), 25 fps, XviD MPEG-4 ~1799 kbps avg, 0.20 bit/pixel
Аудио:..48 kHz, MPEG Layer 3, 2 ch, ~128.00 kbps avg

Отчет MI

1-я серия
Общее
Полное имя : Formula.pamyati.(2-e.serii.iz.2).1982.XviD.TVRip.fenixclub\Formula.pamyati.1.avi
Format : AVI
Format/Info : Audio Video Interleave
File size : 670 MiB
Duration : 1h 5mn
Overall bit rate : 1 422 Kbps
Writing application : VirtualDubModRus 1.5.10.2 (build 2542/release)
Writing library : VirtualDub build 32842/release
Video
ID : 0
Format : MPEG-4 Visual
Format profile : Advanced Simple@L5
Format settings, BVOP : 2
Format settings, QPel : No
Format settings, GMC : No warppoints
Format settings, Matrix : Default (H.263)
Muxing mode : Packed bitstream
Codec ID : XVID
Codec ID/Hint : XviD
Duration : 1h 5mn
Bit rate : 1 284 Kbps
Width : 688 pixels
Height : 512 pixels
Display aspect ratio : 4:3
Frame rate : 25.000 fps
Color space : YUV
Chroma subsampling : 4:2:0
Bit depth : 8 bits
Scan type : Progressive
Compression mode : Lossy
Bits/(Pixel*Frame) : 0.146
Stream size : 605 MiB (90%)
Writing library : XviD 1.2.1 (UTC 2008-12-04)
Audio
ID : 1
Format : MPEG Audio
Format version : Version 1
Format profile : Layer 3
Mode : Joint stereo
Mode extension : MS Stereo
Codec ID : 55
Codec ID/Hint : MP3
Duration : 1h 5mn
Bit rate mode : Constant
Bit rate : 128 Kbps
Channel(s) : 2 channels
Sampling rate : 48.0 KHz
Compression mode : Lossy
Stream size : 60.3 MiB (9%)
Alignment : Split accross interleaves
Interleave, duration : 40 ms (1.00 video frame)
Interleave, preload duration : 500 ms.
2-я серия
Общее
Полное имя : Formula.pamyati.(2-e.serii.iz.2).1982.XviD.TVRip.fenixclub\Formula.pamyati.2.avi
Format : AVI
Format/Info : Audio Video Interleave
File size : 724 MiB
Duration : 1h 11mn
Overall bit rate : 1 422 Kbps
Writing application : VirtualDubModRus 1.5.10.2 (build 2542/release)
Writing library : VirtualDub build 32842/release
Video
ID : 0
Format : MPEG-4 Visual
Format profile : Advanced Simple@L5
Format settings, BVOP : 2
Format settings, QPel : No
Format settings, GMC : No warppoints
Format settings, Matrix : Default (H.263)
Muxing mode : Packed bitstream
Codec ID : XVID
Codec ID/Hint : XviD
Duration : 1h 11mn
Bit rate : 1 284 Kbps
Width : 688 pixels
Height : 512 pixels
Display aspect ratio : 4:3
Frame rate : 25.000 fps
Color space : YUV
Chroma subsampling : 4:2:0
Bit depth : 8 bits
Scan type : Progressive
Compression mode : Lossy
Bits/(Pixel*Frame) : 0.146
Stream size : 654 MiB (90%)
Writing library : XviD 1.2.1 (UTC 2008-12-04)
Audio
ID : 1
Format : MPEG Audio
Format version : Version 1
Format profile : Layer 3
Mode : Joint stereo
Mode extension : MS Stereo
Codec ID : 55
Codec ID/Hint : MP3
Duration : 1h 11mn
Bit rate mode : Constant
Bit rate : 128 Kbps
Channel(s) : 2 channels
Sampling rate : 48.0 KHz
Compression mode : Lossy
Stream size : 65.2 MiB (9%)
Alignment : Split accross interleaves
Interleave, duration : 40 ms (1.00 video frame)
Interleave, preload duration : 500 ms.

Скриншоты


Альтернативный хост





Показать сообщения:    

Текущее время: 11-Дек 09:11

Часовой пояс: UTC + 3


Вы не можете начинать темы
Вы не можете отвечать на сообщения
Вы не можете редактировать свои сообщения
Вы не можете удалять свои сообщения
Вы не можете голосовать в опросах
Вы не можете прикреплять файлы к сообщениям
Вы не можете скачивать файлы