Мальчик и мир / O Menino e o Mundo (Але Абреу / Ale Abreu) [2013, Бразилия, драма, социальный, WEBRip-AVC]


 

[Цитировать]

Мальчик и мир / O Menino e o Mundo
Страна: Бразилия
Жанр: драма, социальный, семейный
Год выпуска: 2013
Продолжительность: 01:19:33
Перевод: Не требуется
Cубтитры: нет
Режиссер: Але Абреу / Ale Abreu
В ролях: Марко Аурелио Кампос, Винисиус Гарсия, Лу Хорта
Описание: Мультфильм повествует о мальчике по имени Кука, чья уютная жизнь рушится, когда его отец уезжает в город. Мальчик отправляется на поиски отца, движемый целью воссоединить свою семью.
"Основной темой мультфильма стало столкновение бедности и богатства, сельской местности и города. Сквозь шум слышно биение сердец простого народа, словно песня." Нарисованные от руки и разработанные сильными визуальными дизайнерами рисунки деревни, сделанные простыми карандашными линиями, уступают место широким мазкам кистью, изображающей проселочные дороги и ревущие волны океана. В городе мы видим индустриальные пейзажи, населённые животными-машинами, кружщимися карнавальными цветами и взрывающимися в декупажное небо, в то время как мигающие неоновые рекламы и яркие витрины освещают ночь.
Доп. информация:
Annecy Cristal 2014 за полный метр

Сэмпл: http://multi-up.com/1013772
Качество видео: WEBRip-AVC
Формат видео: MKV
Видео: AVC, 640x480, 16:9, 24 fps, 2 113 Kbps
Аудио: AC-3, 16 bit, 44.1 KHz, 224 Kbps, 2 channels

MediaInfo

Media Info:
General
Unique ID : 8039577641670432733835661096024988934 (0x60C5DC7EFA092FD8A04BE115A82DD06)
Complete name : O.Menino.e.o.Mundo.2013.WEBRip.x264.mkv
Format : Matroska
Format version : Version 2
File size : 1.33 GiB
Duration : 1h 19mn
Overall bit rate : 2 385 Kbps
Writing application : HandBrake 0.9.5
Writing library : libmkv 0.6.4.1
TITLE : O Menino e o Mundo
ARTIST : Alê Abreu
DATE_RELEASED : 2014-09-30T07:00:00Z
GENRE : Infantis e família
Video
ID : 1
Format : AVC
Format/Info : Advanced Video Codec
Format profile : High@L3.0
Format settings, CABAC : Yes
Format settings, ReFrames : 4 frames
Codec ID : V_MPEG4/ISO/AVC
Duration : 1h 19mn
Bit rate : 2 113 Kbps
Nominal bit rate : 2 232 Kbps
Width : 640 pixels
Height : 480 pixels
Display aspect ratio : 16:9
Frame rate mode : Constant
Frame rate : 24.000 fps
Color space : YUV
Chroma subsampling : 4:2:0
Bit depth : 8 bits
Scan type : Progressive
Bits/(Pixel*Frame) : 0.287
Stream size : 1.17 GiB (89%)
Writing library : x264 core 112
Encoding settings : cabac=1 / ref=3 / deblock=1:0:0 / analyse=0x3:0x113 / me=hex / subme=7 / psy=1 / psy_rd=1.00:0.00 / mixed_ref=1 / me_range=16 / chroma_me=1 / trellis=1 / 8x8dct=1 / cqm=0 / deadzone=21,11 / fast_pskip=1 / chroma_qp_offset=-2 / threads=6 / sliced_threads=0 / nr=0 / decimate=1 / interlaced=0 / constrained_intra=0 / bframes=3 / b_pyramid=2 / b_adapt=2 / b_bias=0 / direct=1 / weightb=1 / open_gop=0 / weightp=2 / keyint=240 / keyint_min=24 / scenecut=40 / intra_refresh=0 / rc_lookahead=50 / rc=abr / mbtree=1 / bitrate=2232 / ratetol=1.0 / qcomp=0.60 / qpmin=3 / qpmax=51 / qpstep=4 / ip_ratio=1.40 / aq=1:1.00
Language : English
Default : Yes
Forced : No
Color primaries : BT.601 NTSC
Transfer characteristics : BT.709
Matrix coefficients : BT.601
Audio
ID : 2
Format : AC-3
Format/Info : Audio Coding 3
Mode extension : CM (complete main)
Format settings, Endianness : Big
Codec ID : A_AC3
Duration : 1h 19mn
Bit rate mode : Constant
Bit rate : 224 Kbps
Channel(s) : 2 channels
Channel positions : Front: L R
Sampling rate : 44.1 KHz
Bit depth : 16 bits
Compression mode : Lossy
Stream size : 127 MiB (9%)
Language : Portuguese
Default : Yes
Forced : No
Menu
00:00:00.000 : Chapter 1

Скриншот c названием фильма

Скриншоты




Показать сообщения:    

Текущее время: 09-Дек 10:48

Часовой пояс: UTC + 3


Вы не можете начинать темы
Вы не можете отвечать на сообщения
Вы не можете редактировать свои сообщения
Вы не можете удалять свои сообщения
Вы не можете голосовать в опросах
Вы не можете прикреплять файлы к сообщениям
Вы не можете скачивать файлы