(Classical) Anton Reicha - Complete String Quartets, Volume 1 (Op. 48 Nos. 1, 2) - Kreutzer Quartet - 2013, FLAC (image+.cue) lossless


 

[Цитировать]

Anton Reicha - Complete String Quartets, Volume 1 (Op. 48 Nos. 1, 2) - Kreutzer Quartet
Жанр: Classical
Страна-производитель диска: UK
Год издания диска: 2013
Издатель (лейбл): Toccata Classics
Номер по каталогу: TOCC 0022
Дата записи: 2013
Аудиокодек: FLAC
Тип рипа: image+.cue
Битрейт аудио: lossless
Продолжительность: 64:16
Источник: собственный рип
Наличие сканов в содержимом раздачи: да
Треклист:
Anton Reicha (1770-1836)
[1]-[4] String Quartet in C major, Op.48 No.1
[5]-[8] String Quartet in G major, Op.48 No.2
Исполнители:
Kreutzer Quartet
Peter Sheppard Skærved violin
Mihailo Trandafilovski violin
Morgan Goff viola
Neil Heyde cello

Лог создания рипа

Exact Audio Copy V1.0 beta 3 from 29. August 2011
EAC extraction logfile from 13. November 2014, 8:35
Kreutzer Quartet / Reicha - Complete String Quartets, Vol. 1
Used drive : HL-DT-STDVDRAM GU70N Adapter: 0 ID: 0
Read mode : Secure
Utilize accurate stream : Yes
Defeat audio cache : Yes
Make use of C2 pointers : No
Read offset correction : 48
Overread into Lead-In and Lead-Out : No
Fill up missing offset samples with silence : Yes
Delete leading and trailing silent blocks : No
Null samples used in CRC calculations : Yes
Used interface : Native Win32 interface for Win NT & 2000
Used output format : User Defined Encoder
Selected bitrate : 128 kBit/s
Quality : High
Add ID3 tag : No
Command line compressor : C:\Program Files (x86)\Exact Audio Copy\Flac\flac.exe
Additional command line options : -V -8 -T "Date=%year%" -T "Genre=%genre%" %source%
TOC of the extracted CD
Track | Start | Length | Start sector | End sector
---------------------------------------------------------
1 | 0:00.00 | 13:37.46 | 0 | 61320
2 | 13:37.46 | 8:44.61 | 61321 | 100681
3 | 22:22.32 | 5:19.47 | 100682 | 124653
4 | 27:42.04 | 5:04.70 | 124654 | 147523
5 | 32:46.74 | 11:16.24 | 147524 | 198247
6 | 44:03.23 | 8:20.03 | 198248 | 235750
7 | 52:23.26 | 5:48.35 | 235751 | 261885
8 | 58:11.61 | 6:03.03 | 261886 | 289113
Range status and errors
Selected range
Filename C:\temp\Reicha - Complete String Quartets, Vol.1 - Kreutzer Quartet\Reicha - Complete String Quartets, Vol. 1.wav
Peak level 94.9 %
Extraction speed 2.2 X
Range quality 99.9 %
Test CRC ECE0F784
Copy CRC ECE0F784
Copy OK
No errors occurred
AccurateRip summary
Track 1 accurately ripped (confidence 1) [EDE810CB] (AR v2)
Track 2 accurately ripped (confidence 1) [B15432CA] (AR v2)
Track 3 accurately ripped (confidence 1) [2CD351A5] (AR v2)
Track 4 accurately ripped (confidence 1) [3D25CAB8] (AR v2)
Track 5 accurately ripped (confidence 1) [69F54B93] (AR v2)
Track 6 accurately ripped (confidence 1) [0758AFDC] (AR v2)
Track 7 accurately ripped (confidence 1) [6B86345B] (AR v2)
Track 8 accurately ripped (confidence 1) [2AC1F0F8] (AR v2)
All tracks accurately ripped
End of status report
==== Log checksum EC8CAE3188DAEC4124813ECD7C39EE7FEE150BC305A213FA2E57E493DD785B50 ====



Показать сообщения:    

Текущее время: 03-Дек 20:43

Часовой пояс: UTC + 3


Вы не можете начинать темы
Вы не можете отвечать на сообщения
Вы не можете редактировать свои сообщения
Вы не можете удалять свои сообщения
Вы не можете голосовать в опросах
Вы не можете прикреплять файлы к сообщениям
Вы не можете скачивать файлы