(French baroque viole) Corrette - Les delices de la solitude (Aria Lachrimae, Philippe Le Corf) - 2005, FLAC (image+.cue) lossless


 

[Цитировать]

Corrette : Les delices de la solitude (Aria Lachrimae)

Жанр: French baroque viole
Страна-производитель диска: Made in France
Год издания диска: 2004
Издатель (лейбл): Ligia Digital Lidi
Номер по каталогу: 0301137-04
Дата записи: 2005
Аудиокодек: FLAC
Тип рипа: image+.cue
Битрейт аудио: lossless
Продолжительность: 59'20
Источник: релизер
сайт-источник/ник/другое: Saoshya and Meeting in Music blogspot
Наличие сканов в содержимом раздачи: да
Треклист:

скрытый текст

01. Sonate VI en ré majeur - 1 Allegro moderato 04:43
02. 2 Aria 04:45
03. 3 Giga 01:38
04. Sonate II en ré mineur - 1 Allegro 03:54
05. 2 Aria 04:02
06. 3 Allegro staccato 02:59
07. Sonate IV en si bémol majeur - 1 Adagio 02:28
08. 2 Corrente 02:54
09. 3 Aria 01:35
10. 4 Bruit de chasse 02:20
11. Sonate III en ut majeur - 1 Allemanda 05:01
12. 2 Sarabanda 02:25
13. 3 Fuga da capella 02:27
14. Sonate I en fa majeur - 1 Fuga 02:18
15. 2 Aria 03:30
16. 3 Allegro 02:23
17. Sonate V en sol majeur - 1 Preludio 00:30
18. 2 Allemanda 03:03
19. 3 Sarabanda 03:26
20. 4 Presto 02:27
Исполнители:

скрытый текст

Michel Corrette (1707-1795)
Les délices de la solitude
Aria Lachrimæ:
Philippe Foulon - viole d'Orphée
Jean-Claude Lavoignat - basson baroque
Willian Water - guitare baroque & théorbe
Philippe Le Corf - violone & direction musicale
Audio CD (February 17, 2005)

Лог создания рипа

Exact Audio Copy V0.99 prebeta 4 from 23. January 2008
EAC extraction logfile from 3. September 2014, 8:59
Aria Lachrimæ, Philippe Le Corf / Michel Corrette - “Les délices de la solitude”
Used drive : SONY DVD-ROM DDU1615 Adapter: 0 ID: 0
Read mode : Secure
Utilize accurate stream : Yes
Defeat audio cache : Yes
Make use of C2 pointers : No
Read offset correction : 6
Overread into Lead-In and Lead-Out : No
Fill up missing offset samples with silence : Yes
Delete leading and trailing silent blocks : No
Null samples used in CRC calculations : Yes
Used interface : Native Win32 interface for Win NT & 2000
Used output format : User Defined Encoder
Selected bitrate : 1024 kBit/s
Quality : High
Add ID3 tag : No
Command line compressor : C:\Program Files\REACT\REACT.exe
Additional command line options : REACT %o %s %d "%a" "%g" "%t" "%n" "%x" "%y" "%m" "%e" "%f" "%b" %r
TOC of the extracted CD
Track | Start | Length | Start sector | End sector
---------------------------------------------------------
1 | 0:00.00 | 4:43.37 | 0 | 21261
2 | 4:43.37 | 4:45.66 | 21262 | 42702
3 | 9:29.28 | 1:38.01 | 42703 | 50053
4 | 11:07.29 | 3:54.63 | 50054 | 67666
5 | 15:02.17 | 4:02.49 | 67667 | 85865
6 | 19:04.66 | 2:59.66 | 85866 | 99356
7 | 22:04.57 | 2:28.66 | 99357 | 110522
8 | 24:33.48 | 2:54.09 | 110523 | 123581
9 | 27:27.57 | 1:35.74 | 123582 | 130780
10 | 29:03.56 | 2:20.38 | 130781 | 141318
11 | 31:24.19 | 5:01.18 | 141319 | 163911
12 | 36:25.37 | 2:25.64 | 163912 | 174850
13 | 38:51.26 | 2:27.00 | 174851 | 185875
14 | 41:18.26 | 2:18.55 | 185876 | 196280
15 | 43:37.06 | 3:30.14 | 196281 | 212044
16 | 47:07.20 | 2:23.64 | 212045 | 222833
17 | 49:31.09 | 0:30.26 | 222834 | 225109
18 | 50:01.35 | 3:03.11 | 225110 | 238845
19 | 53:04.46 | 3:26.72 | 238846 | 254367
20 | 56:31.43 | 2:27.64 | 254368 | 265456
Range status and errors
Selected range
Filename L:\Ripped by Saoshya\~Ligia Digital Lidi0301137-04 Michel Corrette - 'Les delices de la solitude' (Aria Lachrimæ, Philippe Le Corf)\CDImage\Corrette - 'Les delices de la solitude' - Aria Lachrimae.wav
Peak level 95.2 %
Range quality 100.0 %
Test CRC 879D0025
Copy CRC 879D0025
Copy OK
No errors occurred
AccurateRip summary
Track 1 not present in database
Track 2 not present in database
Track 3 not present in database
Track 4 not present in database
Track 5 not present in database
Track 6 not present in database
Track 7 not present in database
Track 8 not present in database
Track 9 not present in database
Track 10 not present in database
Track 11 not present in database
Track 12 not present in database
Track 13 not present in database
Track 14 not present in database
Track 15 not present in database
Track 16 not present in database
Track 17 not present in database
Track 18 not present in database
Track 19 not present in database
Track 20 not present in database
None of the tracks are present in the AccurateRip database
End of status report



Показать сообщения:    

Текущее время: 04-Дек 09:10

Часовой пояс: UTC + 3


Вы не можете начинать темы
Вы не можете отвечать на сообщения
Вы не можете редактировать свои сообщения
Вы не можете удалять свои сообщения
Вы не можете голосовать в опросах
Вы не можете прикреплять файлы к сообщениям
Вы не можете скачивать файлы