(Classical) [LP] [24/48] Эва Бандровска-Турска (сопрано) - Из Сокровищницы Мирового Исполнительского Искусства ( С. Монюшко, Л. Шимановский, F. Chopin, G. Rossini, G. Puccini, J. Bach, А. Bettinelli) - 1980, FLAC (tracks+.cue)


Статистика раздачи [Обновить пиров]
Размер:  203 MB   |    Зарегистрирован:  8 месяцев 16 дней   |    Скачан:  0 раз

Полного источника не было: Никогда

 
   
 
 
 

[Цитировать]

Эва Бандровска-Турска (сопрано)
Из Сокровищницы Мирового Исполнительского Искусства

Жанр: Classical
Носитель: LP
Год выпуска: 1980
Лейбл: Melodya
Страна-производитель: USSR
Аудио кодек: FLAC
Тип рипа: tracks+.cue
Формат записи: 32/192
Формат раздачи: 24/48
Продолжительность: 39.40 min
Треклист:
01. С.Монюшко - Ария Графини
02. С.Монюшко - Ария Гальки (Act II)
03. С.Монюшко - Ария Гальки (Act IV)
04. Л.Шимановский - Ария Роксани
05. Ф.Шопен - Желание
06. Ф.Шопен - Весна
07. Дж.Россини - Каватина Розини
08. Дж.Пуччини - Ария Чио-Чио-Сан
09. И.С.Бах - Ш.Гуно - Ave Maria
10. А.Беттинелли - Жаворонок
Архивные записи 30-х годов
Источник оцифровки: автором раздачи
Код класса состояния винила: Mint
Устройство воспроизведения: Электроника ЭП 017С
Головка звукоснимателя: Audio-Technica AT95
Предварительный усилитель: Бриг-001
АЦП: VIA HD audio device
Программа-оцифровщик: Izotope RX III Advanced
Обработка: Manual

Спектр+АЧХ+Уровень записи


DR=13

foobar2000 1.1.10 / Dynamic Range Meter 1.1.1
log date: 2014-11-18 15:10:17
--------------------------------------------------------------------------------
Analyzed: Ewa Bandrowska-Turska / Vocal ists
--------------------------------------------------------------------------------
DR Peak RMS Duration Track
--------------------------------------------------------------------------------
DR12 -3.88 dB -21.06 dB 2:46 ?-S.Moniuszko - Aria of Hrabina
DR11 -6.19 dB -22.25 dB 3:14 ?-S.Moniuszko - Aria of Halka (Act II)
DR14 -3.99 dB -21.97 dB 7:30 ?-S.Moniuszko - Aria of Halka (Act IV)
DR12 -4.06 dB -21.15 dB 4:03 ?-K.Szymanowski - Roxane's Aria
DR14 -5.00 dB -24.25 dB 1:55 ?-F.Chopin - Desire
DR14 -3.80 dB -23.01 dB 2:24 ?-F.Chopin - Spring
DR13 -4.13 dB -21.45 dB 5:58 ?-G.Rossini - Rosina's Cavatina
DR13 -3.04 dB -21.24 dB 3:55 ?-G.Puccini - Aria of Cho-Cho-San
DR11 -5.09 dB -20.44 dB 3:56 ?-J.S.Bach - Ch.Gounod - Ave Maria
DR13 -4.43 dB -23.03 dB 4:01 ?-A.Bettinelli - Skylark
--------------------------------------------------------------------------------
Number of tracks: 10
Official DR value: DR13
Samplerate: 48000 Hz
Channels: 1
Bits per sample: 24
Bitrate: 683 kbps
Codec: FLAC
================================================================================

Back,Inner,Disc




Доп. информация: записи с патефонного пластинки - чут чут шум от этого
[teatrix.ru].t19491.torrent 
Торрент: Зарегистрирован [ 2016-03-18 12:36 ] · 43FB1F7107713C8BFB8F79B38AE271F08434E0F0

Скачать .torrent

Скачать

17 KB

Статус: проверено
Скачан: 0 раз
Размер: 203 MB
terms.php



Быстрый ответ

Имя:

      
Для отправки сообщений необходимо включить JavaScript
Показать сообщения:    

Текущее время: 03-Дек 22:44

Часовой пояс: UTC + 3


Вы можете начинать темы
Вы можете отвечать на сообщения
Вы не можете редактировать свои сообщения
Вы не можете удалять свои сообщения
Вы не можете голосовать в опросах
Вы не можете прикреплять файлы к сообщениям
Вы можете скачивать файлы