(Baroque pieces de violes) Francois Couperin - Pieces de violes (Paolo Pandolfo) - 2013, FLAC (image+.cue) lossless


 

[Цитировать]

François Couperin - Pièces de violes

Жанр: Baroque pieces de violes
Страна-производитель диска: Made in Austria
Год издания диска: 2013
Издатель (лейбл): Glossa
Номер по каталогу: GCD 920413
Дата записи: 2012
Аудиокодек: FLAC
Тип рипа: image+.cue
Битрейт аудио: lossless
Продолжительность: 59:48
Источник: релизер
сайт-источник/ник/другое: Saoshya and Meeting in Music blogspot
Наличие сканов в содержимом раздачи: да
Она же в Hi Res http://teatrix.ru/viewtopic.php?t=4864419
Треклист:

скрытый текст

Première Suite pour viole de gambe et continuo
Suite No. 1 in E minor
(Pièces de violes avec la basse chiffrée, 1728)
1 Prélude 4:29
2 Allemande légère 2:13
3 Courante 1:53
4 Sarabande grave 4:11
5 Gavotte 1:46
6 Gigue 2:09
7 Passacaille ou Chaconne 5:41
Douzième Concert (à deux violes)
Concerto No. 12 in A major
(Les Goûts réunis, 1724)
8 Pointé-coulé 2:34
9 Badinage 1:43
10 Lentement et pathétiquement 1:19
11 Gracieusement et légèrement 3:22
Deuxième Suite pour viole de gambe et continuo
Suite No. 2 in A major
(Pièces de violes avec la basse chiffrée, 1728)
12 Prélude 2:20
13 Fuguette 1:48
14 Pompe funèbre 5:15
15 La Chemise blanche 3:08
Treizième Concert (à deux violes)
Concerto No. 13 in G major
(Les Goûts réunis, 1724)
16 Vivement 1:56
17 Air (agréablement) 3:21
18 Sarabande (tendrement) 3:32
19 Chaconne légère 2:47
20 Plainte pour les Violes, Lentement et douloureusement 4:12
Concerto No. 10 in A minor
(Les Goûts réunis, 1724)
Исполнители:

скрытый текст

François Couperin
Pieces de violes
Исполнители:
Paolo Pandolfo, viola da gamba
attributed to Nicolas Bertrand (end of the 17th century)
Amélie Chemin, viola da gamba
Judith Kraft (Paris, 2005) after Colichon
Thomas Boysen, theorbo & Baroque guitar
theorbo: Hendrik Hasenfuss (Eitorf, 2006) after Magno Diffeopruchar
guitar: Karl Kirchmeyr (Vienna, 2008) after Antonio Stradivari
Markus Hünninger, harpsichord
Thomas Friedemann Steiner (Basel, 1992) after Jean-Claude Goujon (Paris, 1749)
Recorded in the Église Saint Didier in Rasteau, France, in September 2012

Лог создания рипа

Exact Audio Copy V0.99 prebeta 4 from 23. January 2008
EAC extraction logfile from 7. October 2014, 22:17
Paolo Pandolfo, Amélie Chemin, Thomas Boysen, Markus Hünninger / François Couperin - Pièces de violes
Used drive : SONY DVD-ROM DDU1615 Adapter: 0 ID: 0
Read mode : Secure
Utilize accurate stream : Yes
Defeat audio cache : Yes
Make use of C2 pointers : No
Read offset correction : 6
Overread into Lead-In and Lead-Out : No
Fill up missing offset samples with silence : Yes
Delete leading and trailing silent blocks : No
Null samples used in CRC calculations : Yes
Used interface : Native Win32 interface for Win NT & 2000
Used output format : User Defined Encoder
Selected bitrate : 1024 kBit/s
Quality : High
Add ID3 tag : No
Command line compressor : C:\Program Files\REACT\REACT.exe
Additional command line options : REACT %o %s %d "%a" "%g" "%t" "%n" "%x" "%y" "%m" "%e" "%f" "%b" %r
TOC of the extracted CD
Track | Start | Length | Start sector | End sector
---------------------------------------------------------
1 | 0:00.00 | 4:29.21 | 0 | 20195
2 | 4:29.21 | 2:13.17 | 20196 | 30187
3 | 6:42.38 | 1:53.39 | 30188 | 38701
4 | 8:36.02 | 4:11.30 | 38702 | 57556
5 | 12:47.32 | 1:46.12 | 57557 | 65518
6 | 14:33.44 | 2:09.56 | 65519 | 75249
7 | 16:43.25 | 5:41.70 | 75250 | 100894
8 | 22:25.20 | 2:34.74 | 100895 | 112518
9 | 25:00.19 | 1:43.11 | 112519 | 120254
10 | 26:43.30 | 1:19.29 | 120255 | 126208
11 | 28:02.59 | 3:22.67 | 126209 | 141425
12 | 31:25.51 | 2:20.26 | 141426 | 151951
13 | 33:46.02 | 1:48.30 | 151952 | 160081
14 | 35:34.32 | 5:15.12 | 160082 | 183718
15 | 40:49.44 | 3:08.15 | 183719 | 197833
16 | 43:57.59 | 1:56.34 | 197834 | 206567
17 | 45:54.18 | 3:21.46 | 206568 | 221688
18 | 49:15.64 | 3:32.33 | 221689 | 237621
19 | 52:48.22 | 2:47.41 | 237622 | 250187
20 | 55:35.63 | 4:12.65 | 250188 | 269152
Range status and errors
Selected range
Filename L:\Ripped by Saoshya\Glossa GCD820414 Francois Couperin - Pieces de violes (Paolo Pandolfo, et al)\CDImage\F Couperin - Pieces de violes - Paolo Pandolfo.wav
Peak level 94.3 %
Range quality 99.9 %
Test CRC E759639E
Copy CRC E759639E
Copy OK
No errors occurred
AccurateRip summary
Track 1 cannot be verified as accurate (confidence 5) [2F1A9DE6], AccurateRip returned [2AE9C6CF]
Track 2 cannot be verified as accurate (confidence 5) [C3A3F3A6], AccurateRip returned [0DEC0E3D]
Track 3 cannot be verified as accurate (confidence 5) [95A402B6], AccurateRip returned [DFCA305D]
Track 4 cannot be verified as accurate (confidence 5) [98F1EB38], AccurateRip returned [3C7CD000]
Track 5 cannot be verified as accurate (confidence 5) [37E5EEFB], AccurateRip returned [86AAD07A]
Track 6 cannot be verified as accurate (confidence 5) [A1F4D3DF], AccurateRip returned [B546B917]
Track 7 cannot be verified as accurate (confidence 5) [011CB3C3], AccurateRip returned [0A471C28]
Track 8 cannot be verified as accurate (confidence 5) [24E4A5EA], AccurateRip returned [136E7D3D]
Track 9 cannot be verified as accurate (confidence 5) [4DA9011F], AccurateRip returned [4AE0687E]
Track 10 cannot be verified as accurate (confidence 5) [1FD652CB], AccurateRip returned [C99F9CBB]
Track 11 cannot be verified as accurate (confidence 5) [436123E3], AccurateRip returned [7B6AADE8]
Track 12 cannot be verified as accurate (confidence 5) [A086828E], AccurateRip returned [06A36B8C]
Track 13 cannot be verified as accurate (confidence 5) [BBE7381E], AccurateRip returned [84CC47E9]
Track 14 cannot be verified as accurate (confidence 5) [4953F6EA], AccurateRip returned [D1677B44]
Track 15 cannot be verified as accurate (confidence 5) [1511D3F1], AccurateRip returned [3BFA6CCC]
Track 16 cannot be verified as accurate (confidence 5) [03DD98D6], AccurateRip returned [ADC21881]
Track 17 cannot be verified as accurate (confidence 5) [6D57BB1B], AccurateRip returned [7FA4A653]
Track 18 cannot be verified as accurate (confidence 5) [2BA1A762], AccurateRip returned [8DC06405]
Track 19 cannot be verified as accurate (confidence 5) [EF1C17DA], AccurateRip returned [57C1EF71]
Track 20 cannot be verified as accurate (confidence 5) [79BEA10A], AccurateRip returned [114245F6]
No tracks could be verified as accurate
You may have a different pressing from the one(s) in the database
End of status report



Показать сообщения:    

Текущее время: 08-Дек 03:10

Часовой пояс: UTC + 3


Вы не можете начинать темы
Вы не можете отвечать на сообщения
Вы не можете редактировать свои сообщения
Вы не можете удалять свои сообщения
Вы не можете голосовать в опросах
Вы не можете прикреплять файлы к сообщениям
Вы не можете скачивать файлы