(Classical) Mahler - Das Lied Von Der Erde/Song of the Earth (Sarah Connolly, Toby Spence, Yannick Nezet-Seguin) - 2013, FLAC (tracks+.cue) lossless


 

[Цитировать]

Mahler - Das Lied Von Der Erde/Song of the Earth (Sarah Connolly, Toby Spence, Yannick Nezet-Seguin)
Жанр: Classical
Год издания диска: 2013
Издатель (лейбл): LPO
Номер по каталогу: LPO0073
Дата записи: 2011
Аудиокодек: FLAC
Тип рипа: tracks+.cue
Битрейт аудио: lossless
Продолжительность: 64 минуты
Источник: собственный рип
Треклист:
I. Das Trinklied vom Jammer der Erde (The Drinking Song of Earth's Misery) 8:05
II. Der Einsame im Herbst (The Lonely One in Autumn) 9:34
III. Von der Jugend (Of Youth) 3:02
IV. Von der Schonheit (Of Beauty) 7:21
V. Der Trunkene im Fruhling (The Drunkard in Spring) 4:18
VI. Der Abschied (The Farewell) 31:43
Исполнители:
Yannick Nézet-Séguin conductor
Sarah Connolly mezzo-soprano
Toby Spence tenor
London Philharmonic Orchestra
Pieter Schoeman leader

Лог создания рипа

X Lossless Decoder version 20141109 (148.0)
XLD extraction logfile from 2014-11-16 01:45:44 +0500
Sarah Connolly, Toby Spence; Yannick Nézet-Séguin: London Philharmonic Orchestra / Mahler: Das Lied Von Der Erde
Used drive : ASUS SBW-06D2X-U (revision D501)
Media type : Pressed CD
Ripper mode : XLD Secure Ripper
Disable audio cache : OK for the drive with a cache less than 1375KiB
Make use of C2 pointers : NO
Read offset correction : 103
Max retry count : 20
Gap status : Analyzed, Appended (except HTOA)
TOC of the extracted CD
Track | Start | Length | Start sector | End sector
---------------------------------------------------------
1 | 00:00:00 | 08:05:08 | 0 | 36382
2 | 08:05:08 | 09:34:10 | 36383 | 79442
3 | 17:39:18 | 03:02:11 | 79443 | 93103
4 | 20:41:29 | 07:21:55 | 93104 | 126233
5 | 28:03:09 | 04:18:33 | 126234 | 145616
6 | 32:21:42 | 31:43:50 | 145617 | 288391
AccurateRip Summary (DiscID: 000bbc95-00403218-4c0f0506)
Track 01 : OK (v2, confidence 5/5)
Track 02 : OK (v2, confidence 5/5)
Track 03 : OK (v2, confidence 5/5)
Track 04 : OK (v2, confidence 5/5)
Track 05 : OK (v2, confidence 5/5)
Track 06 : OK (v2, confidence 5/5)
->All tracks accurately ripped.
All Tracks
Statistics
Read error : 0
Jitter error (maybe fixed) : 0
Retry sector count : 0
Damaged sector count : 0
Track 01
Filename : /Volumes/Andy HD2/XLD/Mahler - Das Lied Von Der Erde (Yannick Nezet-Seguin)/01.01 Sarah Connolly, Toby Spence; Yannick Nezet-Seguin. London Philharmonic Orchestra - Mahler. Das Lied Von Der Erde - 1. Das Trinklied Von Jammer Der Erde.flac
Pre-gap length : 00:02:00
CRC32 hash : 67F4B21D
CRC32 hash (skip zero) : FBA3FF4B
AccurateRip v1 signature : CA606FC9
AccurateRip v2 signature : 03B0E1C9
->Accurately ripped (v2, confidence 5/5)
Statistics
Read error : 0
Jitter error (maybe fixed) : 0
Retry sector count : 0
Damaged sector count : 0
Track 02
Filename : /Volumes/Andy HD2/XLD/Mahler - Das Lied Von Der Erde (Yannick Nezet-Seguin)/01.02 Sarah Connolly, Toby Spence; Yannick Nezet-Seguin. London Philharmonic Orchestra - Mahler. Das Lied Von Der Erde - 2. Der Einsame Im Herbst.flac
Pre-gap length : 00:03:46
CRC32 hash : EA16BFEB
CRC32 hash (skip zero) : 9C8224BB
AccurateRip v1 signature : 27D17795
AccurateRip v2 signature : E28AC4BB
->Accurately ripped (v2, confidence 5/5)
Statistics
Read error : 0
Jitter error (maybe fixed) : 0
Retry sector count : 0
Damaged sector count : 0
Track 03
Filename : /Volumes/Andy HD2/XLD/Mahler - Das Lied Von Der Erde (Yannick Nezet-Seguin)/01.03 Sarah Connolly, Toby Spence; Yannick Nezet-Seguin. London Philharmonic Orchestra - Mahler. Das Lied Von Der Erde - 3. Von Der Jugend.flac
Pre-gap length : 00:03:40
CRC32 hash : D3AD72DC
CRC32 hash (skip zero) : A00367FB
AccurateRip v1 signature : 714E04C6
AccurateRip v2 signature : 0D7B2202
->Accurately ripped (v2, confidence 5/5)
Statistics
Read error : 0
Jitter error (maybe fixed) : 0
Retry sector count : 0
Damaged sector count : 0
Track 04
Filename : /Volumes/Andy HD2/XLD/Mahler - Das Lied Von Der Erde (Yannick Nezet-Seguin)/01.04 Sarah Connolly, Toby Spence; Yannick Nezet-Seguin. London Philharmonic Orchestra - Mahler. Das Lied Von Der Erde - 4. Von Der Schonheit.flac
Pre-gap length : 00:03:46
CRC32 hash : B4C15AD2
CRC32 hash (skip zero) : 5ACD12DE
AccurateRip v1 signature : 1655A4AB
AccurateRip v2 signature : C232A211
->Accurately ripped (v2, confidence 5/5)
Statistics
Read error : 0
Jitter error (maybe fixed) : 0
Retry sector count : 0
Damaged sector count : 0
Track 05
Filename : /Volumes/Andy HD2/XLD/Mahler - Das Lied Von Der Erde (Yannick Nezet-Seguin)/01.05 Sarah Connolly, Toby Spence; Yannick Nezet-Seguin. London Philharmonic Orchestra - Mahler. Das Lied Von Der Erde - 5. Der Trunkene Im Fruhling.flac
Pre-gap length : 00:03:48
CRC32 hash : 6BBBE483
CRC32 hash (skip zero) : 21BCEE81
AccurateRip v1 signature : 5A57BB74
AccurateRip v2 signature : D54B9999
->Accurately ripped (v2, confidence 5/5)
Statistics
Read error : 0
Jitter error (maybe fixed) : 0
Retry sector count : 0
Damaged sector count : 0
Track 06
Filename : /Volumes/Andy HD2/XLD/Mahler - Das Lied Von Der Erde (Yannick Nezet-Seguin)/01.06 Sarah Connolly, Toby Spence; Yannick Nezet-Seguin. London Philharmonic Orchestra - Mahler. Das Lied Von Der Erde - 6. Der Abschied.flac
Pre-gap length : 00:03:53
CRC32 hash : FA64BDB6
CRC32 hash (skip zero) : 8E14272B
AccurateRip v1 signature : 86D70462
AccurateRip v2 signature : AC0C58DA
->Accurately ripped (v2, confidence 5/5)
Statistics
Read error : 0
Jitter error (maybe fixed) : 0
Retry sector count : 0
Damaged sector count : 0
No errors occurred
End of status report

Содержание индексной карты (.CUE)

TITLE "Mahler: Das Lied Von Der Erde"
PERFORMER "Sarah Connolly, Toby Spence; Yannick Nézet-Séguin: London Philharmonic Orchestra"
CATALOG 0854990001734
REM GENRE "Classical"
REM DATE "2013"
REM DISCNUMBER 1
REM TOTALDISCS 1
REM DISCID 4C0F0506
FILE "01.01 Sarah Connolly, Toby Spence; Yannick Nezet-Seguin. London Philharmonic Orchestra - Mahler. Das Lied Von Der Erde - 1. Das Trinklied Von Jammer Der Erde.flac" WAVE
TRACK 01 AUDIO
TITLE "Mahler: Das Lied Von Der Erde - 1. Das Trinklied Von Jammer Der Erde"
SONGWRITER "Gustav Mahler"
ISRC GBHZU1307301
INDEX 01 00:00:00
TRACK 02 AUDIO
TITLE "Mahler: Das Lied Von Der Erde - 2. Der Einsame Im Herbst"
SONGWRITER "Gustav Mahler"
ISRC GBHZU1307302
INDEX 00 08:01:37
FILE "01.02 Sarah Connolly, Toby Spence; Yannick Nezet-Seguin. London Philharmonic Orchestra - Mahler. Das Lied Von Der Erde - 2. Der Einsame Im Herbst.flac" WAVE
INDEX 01 00:00:00
TRACK 03 AUDIO
TITLE "Mahler: Das Lied Von Der Erde - 3. Von Der Jugend"
SONGWRITER "Gustav Mahler"
ISRC GBHZU1307303
INDEX 00 09:30:45
FILE "01.03 Sarah Connolly, Toby Spence; Yannick Nezet-Seguin. London Philharmonic Orchestra - Mahler. Das Lied Von Der Erde - 3. Von Der Jugend.flac" WAVE
INDEX 01 00:00:00
TRACK 04 AUDIO
TITLE "Mahler: Das Lied Von Der Erde - 4. Von Der Schönheit"
SONGWRITER "Gustav Mahler"
ISRC GBHZU1307304
INDEX 00 02:58:40
FILE "01.04 Sarah Connolly, Toby Spence; Yannick Nezet-Seguin. London Philharmonic Orchestra - Mahler. Das Lied Von Der Erde - 4. Von Der Schönheit.flac" WAVE
INDEX 01 00:00:00
TRACK 05 AUDIO
TITLE "Mahler: Das Lied Von Der Erde - 5. Der Trunkene Im Frühling"
SONGWRITER "Gustav Mahler"
ISRC GBHZU1307305
INDEX 00 07:18:07
FILE "01.05 Sarah Connolly, Toby Spence; Yannick Nezet-Seguin. London Philharmonic Orchestra - Mahler. Das Lied Von Der Erde - 5. Der Trunkene Im Frühling.flac" WAVE
INDEX 01 00:00:00
TRACK 06 AUDIO
TITLE "Mahler: Das Lied Von Der Erde - 6. Der Abschied"
SONGWRITER "Gustav Mahler"
ISRC GBHZU1307306
INDEX 00 04:14:55
FILE "01.06 Sarah Connolly, Toby Spence; Yannick Nezet-Seguin. London Philharmonic Orchestra - Mahler. Das Lied Von Der Erde - 6. Der Abschied.flac" WAVE
INDEX 01 00:00:00



Показать сообщения:    

Текущее время: 11-Дек 12:57

Часовой пояс: UTC + 3


Вы не можете начинать темы
Вы не можете отвечать на сообщения
Вы не можете редактировать свои сообщения
Вы не можете удалять свои сообщения
Вы не можете голосовать в опросах
Вы не можете прикреплять файлы к сообщениям
Вы не можете скачивать файлы