(Classical) Ravel - Daphnis et Chloe Suite No. 2 / Valses nobles et sentimentales / La Valse / Ma Mere l'Oye (Yannick Nezet-Seguin) - 2010, FLAC (tracks+.cue) lossless


 

[Цитировать]

Ravel: Daphnis et Chloé Suite No. 2 / Valses nobles et sentimentales / La Valse / Ma Mère l'’Oye (Yannick Nezet-Seguin)
Жанр: Classical
Год издания диска: 2010
Издатель (лейбл): Warner Classics
Аудиокодек: FLAC
Тип рипа: tracks+.cue
Битрейт аудио: lossless
Источник: собственный рип
Наличие сканов в содержимом раздачи: нет
Треклист:
Daphnis Et Chloé - Suite No.2
1. Lever Du Jour 5:35
2. Pantomime 6:45
3. Danse Générale 3:30
Valses Nobles Et Sentimentales
4. Modéré - Très 1:14
5. Assez Lent (Aves Une Expression Intense) 2:38
6. Modéré 1:53
7. Assez Animé 1:16
8. Presque Lent (Dans Un Sentiment Intime) 1:27
9. Vif 0:51
10.Moins Vif 2:53
11. Epilogue - Lent 4:27
La Valse
12. La Valse 12:27
Ma Mère L'oye, Cinq Pièces Enfantines
13. I. Pavane De La Belle Au Bois Dormant 1:52
14. II. Petit Poucet 3:26
15. III. Laideronnette, Impératrice Des Pagodes 3:28
16. IV. Les Entretiens De La Belle Et De La Bête 4:28
17. V. Le Jardin Féerique 3:45
Исполнители:
Yannick Nézet-Séguin (Conductor)
Rotterdam Philharmonic Orchestra

Лог создания рипа

X Lossless Decoder version 20141109 (148.0)
XLD extraction logfile from 2014-11-16 00:55:07 +0500
Yannick Nézet-Séguin: Rotterdam Philharmonic Orchestra / Ravel: La Valse, Mother Goose, Etc.
Used drive : ASUS SBW-06D2X-U (revision D501)
Media type : Pressed CD
Ripper mode : XLD Secure Ripper
Disable audio cache : OK for the drive with a cache less than 1375KiB
Make use of C2 pointers : NO
Read offset correction : 103
Max retry count : 20
Gap status : Analyzed, Appended (except HTOA)
TOC of the extracted CD
Track | Start | Length | Start sector | End sector
---------------------------------------------------------
1 | 00:00:00 | 05:35:41 | 0 | 25165
2 | 05:35:41 | 06:45:11 | 25166 | 55551
3 | 12:20:52 | 03:30:40 | 55552 | 71341
4 | 15:51:17 | 01:14:59 | 71342 | 76950
5 | 17:06:01 | 02:38:39 | 76951 | 88839
6 | 19:44:40 | 01:53:10 | 88840 | 97324
7 | 21:37:50 | 01:16:43 | 97325 | 103067
8 | 22:54:18 | 01:27:00 | 103068 | 109592
9 | 24:21:18 | 00:51:38 | 109593 | 113455
10 | 25:12:56 | 02:53:19 | 113456 | 126449
11 | 28:06:00 | 04:27:32 | 126450 | 146506
12 | 32:33:32 | 12:27:61 | 146507 | 202592
13 | 45:01:18 | 01:52:50 | 202593 | 211042
14 | 46:53:68 | 03:26:48 | 211043 | 226540
15 | 50:20:41 | 03:28:13 | 226541 | 242153
16 | 53:48:54 | 04:28:01 | 242154 | 262254
17 | 58:16:55 | 03:47:58 | 262255 | 279337
18 | 64:36:38 | 06:38:56 | 290738 | 320643
List of alternate offset correction values
# | Absolute | Relative | Confidence
------------------------------------------
1 | 91 | -12 | 19
AccurateRip Summary (DiscID: 0025d578-01dd65bf-1010b312)
Track 01 : OK (v2, confidence 2/21)
Track 02 : OK (v2, confidence 2/21)
Track 03 : OK (v2, confidence 2/21)
Track 04 : OK (v2, confidence 2/21)
Track 05 : OK (v2, confidence 2/20)
Track 06 : OK (v2, confidence 2/20)
Track 07 : OK (v2, confidence 2/20)
Track 08 : OK (v2, confidence 2/20)
Track 09 : OK (v2, confidence 2/20)
Track 10 : OK (v2, confidence 2/20)
Track 11 : OK (v2, confidence 2/20)
Track 12 : OK (v2, confidence 2/20)
Track 13 : OK (v2, confidence 2/20)
Track 14 : OK (v2, confidence 2/20)
Track 15 : OK (v2, confidence 2/20)
Track 16 : OK (v2, confidence 2/20)
Track 17 : OK (v2, confidence 2/19)
->All tracks accurately ripped.
All Tracks
Statistics
Read error : 0
Jitter error (maybe fixed) : 0
Retry sector count : 0
Damaged sector count : 0
Track 01
Filename : /Volumes/Andy HD2/XLD/Ravel - La Valse, Mother Goose, Etc. (Yannick Nezet-Seguin)/01.01 Yannick Nezet-Seguin. Rotterdam Philharmonic Orchestra - Ravel. Daphnis Et Chloe Suite #2 - 1. Lever Du Jour.flac
Pre-gap length : 00:02:00
CRC32 hash : 56B7461A
CRC32 hash (skip zero) : 535346CA
AccurateRip v1 signature : 11CB5950
AccurateRip v2 signature : 6A4B4370
->Accurately ripped (v2, confidence 2/21)
Statistics
Read error : 0
Jitter error (maybe fixed) : 0
Retry sector count : 0
Damaged sector count : 0
Track 02
Filename : /Volumes/Andy HD2/XLD/Ravel - La Valse, Mother Goose, Etc. (Yannick Nezet-Seguin)/01.02 Yannick Nezet-Seguin. Rotterdam Philharmonic Orchestra - Ravel. Daphnis Et Chloe Suite #2 - 2. Pantomime.flac
CRC32 hash : 9F9F8ADB
CRC32 hash (skip zero) : CD3663B8
AccurateRip v1 signature : BF5C4A8E
AccurateRip v2 signature : 997C5A04
->Accurately ripped (v2, confidence 2/21)
Statistics
Read error : 0
Jitter error (maybe fixed) : 0
Retry sector count : 0
Damaged sector count : 0
Track 03
Filename : /Volumes/Andy HD2/XLD/Ravel - La Valse, Mother Goose, Etc. (Yannick Nezet-Seguin)/01.03 Yannick Nezet-Seguin. Rotterdam Philharmonic Orchestra - Ravel. Daphnis Et Chloe Suite #2 - 3. Danse Generale.flac
CRC32 hash : C1EDF24B
CRC32 hash (skip zero) : 4550B629
AccurateRip v1 signature : 2A59ECD5
AccurateRip v2 signature : 3F767AC8
->Accurately ripped (v2, confidence 2/21)
Statistics
Read error : 0
Jitter error (maybe fixed) : 0
Retry sector count : 0
Damaged sector count : 0
Track 04
Filename : /Volumes/Andy HD2/XLD/Ravel - La Valse, Mother Goose, Etc. (Yannick Nezet-Seguin)/01.04 Yannick Nezet-Seguin. Rotterdam Philharmonic Orchestra - Ravel. Valses Nobles Et Sentimentales - 1. Modere.flac
CRC32 hash : AD27CE71
CRC32 hash (skip zero) : 99557233
AccurateRip v1 signature : 7B550FD1
AccurateRip v2 signature : 03B020FF
->Accurately ripped (v2, confidence 2/21)
Statistics
Read error : 0
Jitter error (maybe fixed) : 0
Retry sector count : 0
Damaged sector count : 0
Track 05
Filename : /Volumes/Andy HD2/XLD/Ravel - La Valse, Mother Goose, Etc. (Yannick Nezet-Seguin)/01.05 Yannick Nezet-Seguin. Rotterdam Philharmonic Orchestra - Ravel. Valses Nobles Et Sentimentales - 2. Assez Lent.flac
CRC32 hash : B64A4B0A
CRC32 hash (skip zero) : 59E2C750
AccurateRip v1 signature : 68C8300B
AccurateRip v2 signature : BC907C90
->Accurately ripped (v2, confidence 2/20)
Statistics
Read error : 0
Jitter error (maybe fixed) : 0
Retry sector count : 0
Damaged sector count : 0
Track 06
Filename : /Volumes/Andy HD2/XLD/Ravel - La Valse, Mother Goose, Etc. (Yannick Nezet-Seguin)/01.06 Yannick Nezet-Seguin. Rotterdam Philharmonic Orchestra - Ravel. Valses Nobles Et Sentimentales - 3. Modere.flac
CRC32 hash : 3096DC6A
CRC32 hash (skip zero) : A26FEFAC
AccurateRip v1 signature : C9BC6667
AccurateRip v2 signature : E924B38B
->Accurately ripped (v2, confidence 2/20)
Statistics
Read error : 0
Jitter error (maybe fixed) : 0
Retry sector count : 0
Damaged sector count : 0
Track 07
Filename : /Volumes/Andy HD2/XLD/Ravel - La Valse, Mother Goose, Etc. (Yannick Nezet-Seguin)/01.07 Yannick Nezet-Seguin. Rotterdam Philharmonic Orchestra - Ravel. Valses Nobles Et Sentimentales - 4. Assez Anime.flac
CRC32 hash : 0136B400
CRC32 hash (skip zero) : 361C4493
AccurateRip v1 signature : F101C5C7
AccurateRip v2 signature : 5172B954
->Accurately ripped (v2, confidence 2/20)
Statistics
Read error : 0
Jitter error (maybe fixed) : 0
Retry sector count : 0
Damaged sector count : 0
Track 08
Filename : /Volumes/Andy HD2/XLD/Ravel - La Valse, Mother Goose, Etc. (Yannick Nezet-Seguin)/01.08 Yannick Nezet-Seguin. Rotterdam Philharmonic Orchestra - Ravel. Valses Nobles Et Sentimentales - 5. Presque Lent.flac
CRC32 hash : E5550A5C
CRC32 hash (skip zero) : B8339B6E
AccurateRip v1 signature : 0BC9816F
AccurateRip v2 signature : BDDCF2A7
->Accurately ripped (v2, confidence 2/20)
Statistics
Read error : 0
Jitter error (maybe fixed) : 0
Retry sector count : 0
Damaged sector count : 0
Track 09
Filename : /Volumes/Andy HD2/XLD/Ravel - La Valse, Mother Goose, Etc. (Yannick Nezet-Seguin)/01.09 Yannick Nezet-Seguin. Rotterdam Philharmonic Orchestra - Ravel. Valses Nobles Et Sentimentales - 6. Assez Vif.flac
CRC32 hash : 38C8D832
CRC32 hash (skip zero) : 4C56690E
AccurateRip v1 signature : 854FC0EE
AccurateRip v2 signature : 781E61D0
->Accurately ripped (v2, confidence 2/20)
Statistics
Read error : 0
Jitter error (maybe fixed) : 0
Retry sector count : 0
Damaged sector count : 0
Track 10
Filename : /Volumes/Andy HD2/XLD/Ravel - La Valse, Mother Goose, Etc. (Yannick Nezet-Seguin)/01.10 Yannick Nezet-Seguin. Rotterdam Philharmonic Orchestra - Ravel. Valses Nobles Et Sentimentales - 7. Moins Vif.flac
CRC32 hash : 9CC9BC9F
CRC32 hash (skip zero) : EBC18941
AccurateRip v1 signature : 21CC150E
AccurateRip v2 signature : 274D7AC5
->Accurately ripped (v2, confidence 2/20)
Statistics
Read error : 0
Jitter error (maybe fixed) : 0
Retry sector count : 0
Damaged sector count : 0
Track 11
Filename : /Volumes/Andy HD2/XLD/Ravel - La Valse, Mother Goose, Etc. (Yannick Nezet-Seguin)/01.11 Yannick Nezet-Seguin. Rotterdam Philharmonic Orchestra - Ravel. Valses Nobles Et Sentimentales - 8. Épilogue. Lent.flac
CRC32 hash : 1D8BBF54
CRC32 hash (skip zero) : 9D495CF7
AccurateRip v1 signature : 0B969EC0
AccurateRip v2 signature : E6B924B4
->Accurately ripped (v2, confidence 2/20)
Statistics
Read error : 0
Jitter error (maybe fixed) : 0
Retry sector count : 0
Damaged sector count : 0
Track 12
Filename : /Volumes/Andy HD2/XLD/Ravel - La Valse, Mother Goose, Etc. (Yannick Nezet-Seguin)/01.12 Yannick Nezet-Seguin. Rotterdam Philharmonic Orchestra - Ravel. La Valse.flac
CRC32 hash : DA571AA8
CRC32 hash (skip zero) : 36562296
AccurateRip v1 signature : E695576E
AccurateRip v2 signature : EE279B63
->Accurately ripped (v2, confidence 2/20)
Statistics
Read error : 0
Jitter error (maybe fixed) : 0
Retry sector count : 0
Damaged sector count : 0
Track 13
Filename : /Volumes/Andy HD2/XLD/Ravel - La Valse, Mother Goose, Etc. (Yannick Nezet-Seguin)/01.13 Yannick Nezet-Seguin. Rotterdam Philharmonic Orchestra - Ravel. Ma Mere L'Oye - Tableau #2. Pavane De La Belle Au Bois Dormant.flac
CRC32 hash : B6D05FDC
CRC32 hash (skip zero) : C6534939
AccurateRip v1 signature : 256BB2E8
AccurateRip v2 signature : 3E23167E
->Accurately ripped (v2, confidence 2/20)
Statistics
Read error : 0
Jitter error (maybe fixed) : 0
Retry sector count : 0
Damaged sector count : 0
Track 14
Filename : /Volumes/Andy HD2/XLD/Ravel - La Valse, Mother Goose, Etc. (Yannick Nezet-Seguin)/01.14 Yannick Nezet-Seguin. Rotterdam Philharmonic Orchestra - Ravel. Ma Mere L'Oye - Tableau #4. Petit Poucet.flac
CRC32 hash : 6FB3E63B
CRC32 hash (skip zero) : A1CF2B66
AccurateRip v1 signature : 5F3997D5
AccurateRip v2 signature : AA6D7E46
->Accurately ripped (v2, confidence 2/20)
Statistics
Read error : 0
Jitter error (maybe fixed) : 0
Retry sector count : 0
Damaged sector count : 0
Track 15
Filename : /Volumes/Andy HD2/XLD/Ravel - La Valse, Mother Goose, Etc. (Yannick Nezet-Seguin)/01.15 Yannick Nezet-Seguin. Rotterdam Philharmonic Orchestra - Ravel. Ma Mere L'Oye - Tableau #5. Laideronnette, Imperatrice Des Pagodes.flac
CRC32 hash : 457D464F
CRC32 hash (skip zero) : F2920A09
AccurateRip v1 signature : A75E16A6
AccurateRip v2 signature : A9E29657
->Accurately ripped (v2, confidence 2/20)
Statistics
Read error : 0
Jitter error (maybe fixed) : 0
Retry sector count : 0
Damaged sector count : 0
Track 16
Filename : /Volumes/Andy HD2/XLD/Ravel - La Valse, Mother Goose, Etc. (Yannick Nezet-Seguin)/01.16 Yannick Nezet-Seguin. Rotterdam Philharmonic Orchestra - Ravel. Ma Mere L'Oye - Tableau #3. Les Entretiens De La Belle Et De La Bete.flac
CRC32 hash : CBCA21A6
CRC32 hash (skip zero) : 26310F5E
AccurateRip v1 signature : 65636C56
AccurateRip v2 signature : A6C92F8E
->Accurately ripped (v2, confidence 2/20)
Statistics
Read error : 0
Jitter error (maybe fixed) : 0
Retry sector count : 0
Damaged sector count : 0
Track 17
Filename : /Volumes/Andy HD2/XLD/Ravel - La Valse, Mother Goose, Etc. (Yannick Nezet-Seguin)/01.17 Yannick Nezet-Seguin. Rotterdam Philharmonic Orchestra - Ravel. Ma Mere L'Oye - Apotheose. Le Jardin Feerique.flac
CRC32 hash : 29C1D867
CRC32 hash (skip zero) : 3F26318B
AccurateRip v1 signature : 4FDF46B1
AccurateRip v2 signature : 507C7CF7
->Accurately ripped (v2, confidence 2/19)
Statistics
Read error : 0
Jitter error (maybe fixed) : 0
Retry sector count : 0
Damaged sector count : 0
No errors occurred
End of status report

Содержание индексной карты (.CUE)

TITLE "Ravel: La Valse, Mother Goose, Etc."
PERFORMER "Yannick Nézet-Séguin: Rotterdam Philharmonic Orchestra"
CATALOG 5099996634226
REM GENRE "Classical"
REM DATE "2009"
REM DISCNUMBER 1
REM TOTALDISCS 1
REM DISCID 1010B312
FILE "01.01 Yannick Nezet-Seguin. Rotterdam Philharmonic Orchestra - Ravel. Daphnis Et Chloe Suite #2 - 1. Lever Du Jour.flac" WAVE
TRACK 01 AUDIO
TITLE "Ravel: Daphnis Et Chloé Suite #2 - 1. Lever Du Jour"
SONGWRITER "Maurice Ravel"
ISRC GBAYC0900869
FLAGS DCP
INDEX 01 00:00:00
FILE "01.02 Yannick Nezet-Seguin. Rotterdam Philharmonic Orchestra - Ravel. Daphnis Et Chloe Suite #2 - 2. Pantomime.flac" WAVE
TRACK 02 AUDIO
TITLE "Ravel: Daphnis Et Chloé Suite #2 - 2. Pantomime"
SONGWRITER "Maurice Ravel"
ISRC GBAYC0900870
FLAGS DCP
INDEX 01 00:00:00
FILE "01.03 Yannick Nezet-Seguin. Rotterdam Philharmonic Orchestra - Ravel. Daphnis Et Chloe Suite #2 - 3. Danse Generale.flac" WAVE
TRACK 03 AUDIO
TITLE "Ravel: Daphnis Et Chloé Suite #2 - 3. Danse Generale"
SONGWRITER "Maurice Ravel"
ISRC GBAYC0900871
FLAGS DCP
INDEX 01 00:00:00
FILE "01.04 Yannick Nezet-Seguin. Rotterdam Philharmonic Orchestra - Ravel. Valses Nobles Et Sentimentales - 1. Modere.flac" WAVE
TRACK 04 AUDIO
TITLE "Ravel: Valses Nobles Et Sentimentales - 1. Modéré"
SONGWRITER "Maurice Ravel"
ISRC GBAYC0900873
FLAGS DCP
INDEX 01 00:00:00
FILE "01.05 Yannick Nezet-Seguin. Rotterdam Philharmonic Orchestra - Ravel. Valses Nobles Et Sentimentales - 2. Assez Lent.flac" WAVE
TRACK 05 AUDIO
TITLE "Ravel: Valses Nobles Et Sentimentales - 2. Assez Lent"
SONGWRITER "Maurice Ravel"
ISRC GBAYC0900874
FLAGS DCP
INDEX 01 00:00:00
FILE "01.06 Yannick Nezet-Seguin. Rotterdam Philharmonic Orchestra - Ravel. Valses Nobles Et Sentimentales - 3. Modere.flac" WAVE
TRACK 06 AUDIO
TITLE "Ravel: Valses Nobles Et Sentimentales - 3. Modéré"
SONGWRITER "Maurice Ravel"
ISRC GBAYC0900875
FLAGS DCP
INDEX 01 00:00:00
FILE "01.07 Yannick Nezet-Seguin. Rotterdam Philharmonic Orchestra - Ravel. Valses Nobles Et Sentimentales - 4. Assez Anime.flac" WAVE
TRACK 07 AUDIO
TITLE "Ravel: Valses Nobles Et Sentimentales - 4. Assez Animé"
SONGWRITER "Maurice Ravel"
ISRC GBAYC0900876
FLAGS DCP
INDEX 01 00:00:00
FILE "01.08 Yannick Nezet-Seguin. Rotterdam Philharmonic Orchestra - Ravel. Valses Nobles Et Sentimentales - 5. Presque Lent.flac" WAVE
TRACK 08 AUDIO
TITLE "Ravel: Valses Nobles Et Sentimentales - 5. Presque Lent"
SONGWRITER "Maurice Ravel"
ISRC GBAYC0900877
FLAGS DCP
INDEX 01 00:00:00
FILE "01.09 Yannick Nezet-Seguin. Rotterdam Philharmonic Orchestra - Ravel. Valses Nobles Et Sentimentales - 6. Assez Vif.flac" WAVE
TRACK 09 AUDIO
TITLE "Ravel: Valses Nobles Et Sentimentales - 6. Assez Vif"
SONGWRITER "Maurice Ravel"
ISRC GBAYC0900878
FLAGS DCP
INDEX 01 00:00:00
FILE "01.10 Yannick Nezet-Seguin. Rotterdam Philharmonic Orchestra - Ravel. Valses Nobles Et Sentimentales - 7. Moins Vif.flac" WAVE
TRACK 10 AUDIO
TITLE "Ravel: Valses Nobles Et Sentimentales - 7. Moins Vif"
SONGWRITER "Maurice Ravel"
ISRC GBAYC0900879
FLAGS DCP
INDEX 01 00:00:00
FILE "01.11 Yannick Nezet-Seguin. Rotterdam Philharmonic Orchestra - Ravel. Valses Nobles Et Sentimentales - 8. Épilogue. Lent.flac" WAVE
TRACK 11 AUDIO
TITLE "Ravel: Valses Nobles Et Sentimentales - 8. Épilogue: Lent"
SONGWRITER "Maurice Ravel"
ISRC GBAYC0900880
FLAGS DCP
INDEX 01 00:00:00
FILE "01.12 Yannick Nezet-Seguin. Rotterdam Philharmonic Orchestra - Ravel. La Valse.flac" WAVE
TRACK 12 AUDIO
TITLE "Ravel: La Valse"
SONGWRITER "Maurice Ravel"
ISRC GBAYC0900881
FLAGS DCP
INDEX 01 00:00:00
FILE "01.13 Yannick Nezet-Seguin. Rotterdam Philharmonic Orchestra - Ravel. Ma Mere L'Oye - Tableau #2. Pavane De La Belle Au Bois Dormant.flac" WAVE
TRACK 13 AUDIO
TITLE "Ravel: Ma Mère L'Oye - Tableau #2: Pavane De La Belle Au Bois Dormant"
SONGWRITER "Maurice Ravel"
ISRC GBAYC0900883
FLAGS DCP
INDEX 01 00:00:00
FILE "01.14 Yannick Nezet-Seguin. Rotterdam Philharmonic Orchestra - Ravel. Ma Mere L'Oye - Tableau #4. Petit Poucet.flac" WAVE
TRACK 14 AUDIO
TITLE "Ravel: Ma Mère L'Oye - Tableau #4: Petit Poucet"
SONGWRITER "Maurice Ravel"
ISRC GBAYC0900884
FLAGS DCP
INDEX 01 00:00:00
FILE "01.15 Yannick Nezet-Seguin. Rotterdam Philharmonic Orchestra - Ravel. Ma Mere L'Oye - Tableau #5. Laideronnette, Imperatrice Des Pagodes.flac" WAVE
TRACK 15 AUDIO
TITLE "Ravel: Ma Mère L'Oye - Tableau #5: Laideronnette, Impératrice Des Pagodes"
SONGWRITER "Maurice Ravel"
ISRC GBAYC0900885
FLAGS DCP
INDEX 01 00:00:00
FILE "01.16 Yannick Nezet-Seguin. Rotterdam Philharmonic Orchestra - Ravel. Ma Mere L'Oye - Tableau #3. Les Entretiens De La Belle Et De La Bete.flac" WAVE
TRACK 16 AUDIO
TITLE "Ravel: Ma Mère L'Oye - Tableau #3: Les Entretiens De La Belle Et De La Bête"
SONGWRITER "Maurice Ravel"
ISRC GBAYC0900886
FLAGS DCP
INDEX 01 00:00:00
FILE "01.17 Yannick Nezet-Seguin. Rotterdam Philharmonic Orchestra - Ravel. Ma Mere L'Oye - Apotheose. Le Jardin Feerique.flac" WAVE
TRACK 17 AUDIO
TITLE "Ravel: Ma Mère L'Oye - Apothéose: Le Jardin Féerique"
SONGWRITER "Maurice Ravel"
ISRC GBAYC0900887
FLAGS DCP
INDEX 01 00:00:00



Показать сообщения:    

Текущее время: 08-Дек 01:18

Часовой пояс: UTC + 3


Вы не можете начинать темы
Вы не можете отвечать на сообщения
Вы не можете редактировать свои сообщения
Вы не можете удалять свои сообщения
Вы не можете голосовать в опросах
Вы не можете прикреплять файлы к сообщениям
Вы не можете скачивать файлы