(Classical) Mahler - Symphony No 4 (Karina Gauvin, Yannick Nezet-Seguin) - 2004, FLAC (tracks+.cue) lossless


 

[Цитировать]

Mahler - Symphony No 4 (Karina Gauvin, Yannick Nezet-Seguin)
Жанр: Classical
Год издания диска: 2004
Издатель (лейбл): ATMA Classique
Номер по каталогу: ACD22306
Дата записи: 2003
Аудиокодек: FLAC
Тип рипа: tracks+.cue
Битрейт аудио: lossless
Продолжительность: 60 минут
Источник: собственный рип
Треклист:
Gustav Mahler - Symphony No 4 in G major
1. Bedächtig; Nicht eilen; Recht gemächlich
2. Im gemächliner Bewegung; Ohne Hast
3. Ruhevoll (Poco adagio)
4. Sehr behaglich
Исполнители:
Karina Gauvin (soprano)
Orchestre Métropolitain du Grand Montréal (OM),
Yannick Nézet-Séguin

Лог создания рипа

X Lossless Decoder version 20141109 (148.0)
XLD extraction logfile from 2014-11-16 00:42:17 +0500
Karina Gauvin; Yannick Nézet-Séguin: Orchestre Métropolitain Du Grand Montréal / Mahler: Symphony #4
Used drive : ASUS SBW-06D2X-U (revision D501)
Media type : Pressed CD
Ripper mode : XLD Secure Ripper
Disable audio cache : OK for the drive with a cache less than 1375KiB
Make use of C2 pointers : NO
Read offset correction : 103
Max retry count : 20
Gap status : Analyzed, Appended (except HTOA)
TOC of the extracted CD
Track | Start | Length | Start sector | End sector
---------------------------------------------------------
1 | 00:00:00 | 18:09:57 | 0 | 81731
2 | 18:09:57 | 10:47:10 | 81732 | 130266
3 | 28:56:67 | 21:31:20 | 130267 | 227111
4 | 50:28:12 | 09:35:43 | 227112 | 270279
AccurateRip Summary (DiscID: 000ad30f-002af0a2-260e1304)
Track 01 : OK (v1, confidence 4/4)
Track 02 : OK (v1, confidence 4/4)
Track 03 : OK (v1, confidence 4/4)
Track 04 : OK (v1, confidence 4/4)
->All tracks accurately ripped.
All Tracks
Statistics
Read error : 0
Jitter error (maybe fixed) : 0
Retry sector count : 0
Damaged sector count : 0
Track 01
Filename : /Volumes/Andy HD2/XLD/Mahler - Symphony #4 (Yannick Nezet-Seguin)/01.01 Karina Gauvin; Yannick Nezet-Seguin. Orchestre Metropolitain Du Grand Montreal - Mahler. Symphony #4 - Bedachtig, Nicht Eilen.flac
Pre-gap length : 00:02:00
CRC32 hash : 7EA11156
CRC32 hash (skip zero) : E77E3855
AccurateRip v1 signature : D07BC7F8
AccurateRip v2 signature : 0502257E
->Accurately ripped (v1, confidence 4/4)
Statistics
Read error : 0
Jitter error (maybe fixed) : 0
Retry sector count : 0
Damaged sector count : 0
Track 02
Filename : /Volumes/Andy HD2/XLD/Mahler - Symphony #4 (Yannick Nezet-Seguin)/01.02 Karina Gauvin; Yannick Nezet-Seguin. Orchestre Metropolitain Du Grand Montreal - Mahler. Symphony #4 - In Gemachlicher Bewegung.flac
Pre-gap length : 00:04:57
CRC32 hash : B8AAAD9F
CRC32 hash (skip zero) : 8F157E3D
AccurateRip v1 signature : B28D3AC9
AccurateRip v2 signature : F0851150
->Accurately ripped (v1, confidence 4/4)
Statistics
Read error : 0
Jitter error (maybe fixed) : 0
Retry sector count : 0
Damaged sector count : 0
Track 03
Filename : /Volumes/Andy HD2/XLD/Mahler - Symphony #4 (Yannick Nezet-Seguin)/01.03 Karina Gauvin; Yannick Nezet-Seguin. Orchestre Metropolitain Du Grand Montreal - Mahler. Symphony #4 - Ruhevoll (Poco Adagio).flac
Pre-gap length : 00:03:50
CRC32 hash : 998B644D
CRC32 hash (skip zero) : 448A0652
AccurateRip v1 signature : 6C1B5B60
AccurateRip v2 signature : 8B4EE70F
->Accurately ripped (v1, confidence 4/4)
Statistics
Read error : 0
Jitter error (maybe fixed) : 0
Retry sector count : 0
Damaged sector count : 0
Track 04
Filename : /Volumes/Andy HD2/XLD/Mahler - Symphony #4 (Yannick Nezet-Seguin)/01.04 Karina Gauvin; Yannick Nezet-Seguin. Orchestre Metropolitain Du Grand Montreal - Mahler. Symphony #4 - Sehr Behaglich.flac
Pre-gap length : 00:01:67
CRC32 hash : AD170A9D
CRC32 hash (skip zero) : 108CD282
AccurateRip v1 signature : D512E039
AccurateRip v2 signature : C19BB60B
->Accurately ripped (v1, confidence 4/4)
Statistics
Read error : 0
Jitter error (maybe fixed) : 0
Retry sector count : 0
Damaged sector count : 0
No errors occurred
End of status report

Содержание индексной карты (.CUE)

TITLE "Mahler: Symphony #4"
PERFORMER "Karina Gauvin; Yannick Nézet-Séguin: Orchestre Métropolitain Du Grand Montréal"
REM GENRE "Classical"
REM DATE "2006"
REM DISCNUMBER 1
REM TOTALDISCS 1
REM DISCID 260E1304
FILE "01.01 Karina Gauvin; Yannick Nezet-Seguin. Orchestre Metropolitain Du Grand Montreal - Mahler. Symphony #4 - Bedachtig, Nicht Eilen.flac" WAVE
TRACK 01 AUDIO
TITLE "Mahler: Symphony #4 - Bedächtig, Nicht Eilen"
SONGWRITER "Gustav Mahler"
INDEX 01 00:00:00
TRACK 02 AUDIO
TITLE "Mahler: Symphony #4 - In Gemächlicher Bewegung"
SONGWRITER "Gustav Mahler"
INDEX 00 18:05:00
FILE "01.02 Karina Gauvin; Yannick Nezet-Seguin. Orchestre Metropolitain Du Grand Montreal - Mahler. Symphony #4 - In Gemachlicher Bewegung.flac" WAVE
INDEX 01 00:00:00
TRACK 03 AUDIO
TITLE "Mahler: Symphony #4 - Ruhevoll (Poco Adagio)"
SONGWRITER "Gustav Mahler"
INDEX 00 10:43:35
FILE "01.03 Karina Gauvin; Yannick Nezet-Seguin. Orchestre Metropolitain Du Grand Montreal - Mahler. Symphony #4 - Ruhevoll (Poco Adagio).flac" WAVE
INDEX 01 00:00:00
TRACK 04 AUDIO
TITLE "Mahler: Symphony #4 - Sehr Behaglich"
SONGWRITER "Gustav Mahler"
INDEX 00 21:29:28
FILE "01.04 Karina Gauvin; Yannick Nezet-Seguin. Orchestre Metropolitain Du Grand Montreal - Mahler. Symphony #4 - Sehr Behaglich.flac" WAVE
INDEX 01 00:00:00



Показать сообщения:    

Текущее время: 09-Дек 08:47

Часовой пояс: UTC + 3


Вы не можете начинать темы
Вы не можете отвечать на сообщения
Вы не можете редактировать свои сообщения
Вы не можете удалять свои сообщения
Вы не можете голосовать в опросах
Вы не можете прикреплять файлы к сообщениям
Вы не можете скачивать файлы