(Baroque ballet) Rameau, Charpentier - Musique de Ballet [1979-1999 20 Eme Anniversaire Les Arts Florissants] (Les Arts Florissants, William Christie) - 1999, FLAC (image+.cue) lossless


 

[Цитировать]

Rameau, Charpentier - Musique de Ballet

Жанр: Baroque ballet
Страна-производитель диска: Made in Germany
Год издания диска: 1999
Издатель (лейбл): Erato Disques S.A.
Номер по каталогу: ORF041
Дата записи: 1979-1999
Аудиокодек: FLAC
Тип рипа: image+.cue
Битрейт аудио: lossless
Продолжительность: 69'37
Источник: релизер
сайт-источник/ник/другое: curumo
Наличие сканов в содержимом раздачи: да
Треклист:

скрытый текст

Rameau
1. Les Fêtes D'hébé : Prologue - Ouverture (4:04)
2. Les Fêtes D'hébé : Prologue - Air Gai (1:28)
3. Les Fêtes D'hébé : Prologue - Bourée (Vif) (0:49)
4. Les Fêtes D'hébé : Prologue - Air Gracieux Pour Zéphir Et Les Graces (Extrait) (1:00)
5. Les Fêtes D'hébé : 1ère Entrée - Tambourin 1 Et 2 (1:57)
6. Les Fêtes D'hébé : 1ère Entrée - Rigaudon 1 & 2 (1:53)
7. Les Fêtes D'hébé : 2ème Entrée - Scène 5 - Ballet (0:59)
8. Les Fêtes D'hébé : 2ème Entrée - Pour Le Génie De Mars (1:09)
9. Les Fêtes D'hébé : 2ème Entrée - La Victoire (1:16)
10. Les Fêtes D'hébé : 2ème Entrée - Rigaudon 1 & 2 (1:25)
11. Les Fêtes D'hébé : 2ème Entrée - L'hymen, Chaconne (3:44)
12. Les Fêtes D'hébé : 3ème Entrée - Gavotte 1 & 2 (2:20)
13. Les Fêtes D'hébé : 3ème Entrée - Rigaudon (0:34)
14. Les Fêtes D'hébé : 3ème Entrée - Scène Vii - Prelude Gai (0:41)
15. Les Fêtes D'hébé : 3ème Entrée - Lourré Grave (1:24)
16. Les Fêtes D'hébé : 3ème Entrée - Menuet 1 & 2 (2:31)
17. Les Fêtes D'hébé : 3ème Entrée - Musette (1:31)
18. Les Fêtes D'hébé : 3ème Entrée - Tambourin En Rondeau (1:06)
19. Les Fêtes D'hébé : 3ème Entrée - Passepied No. 1 & No. 2 (2:18)
20. Les Fêtes D'hébé : 3ème Entrée - Contredance (0:28)
21. Hippolyte Et Aricie : Prologue : Ouverture (4:10)
22. Hippolyte Et Aricie : Prologue : Scène V, Air En Rondeau Pour Les Amours (Extract) (1:52)
23. Hippolyte Et Aricie : Prologue : Scène V Premier Menuet (Extract) (1:35)
24. Hippolyte Et Aricie : Prologue : Scene 5 - Marche (Extract) (0:38)
25. Hippolyte Et Aricie : Acte I : Scène Iii - Marche (Extract) (1:16)
26. Hippolyte Et Aricie : Acte Ii : Scène Iii Premier Air Des Furies (Extract) (1:48)
27. Hippolyte Et Aricie : Acte Iii : Scène Viii Premier Et Deuxième Air Des Matelots (2:10)
28. Hippolyte Et Aricie : Acte Iii : Scène Viii Premier Rigaudon (Extract) (0:29)
29. Hippolyte Et Aricie : Acte Iv : Scène Iii Deuxième Air Des Chasseurs (Extract) (1:49)
30. Hippolyte Et Aricie : Acte Iv : Scène Iii Premier Et Deuxième Menuets (2:45)
31. Hippolyte Et Aricie : Acte V : Scène Finale, Première Et Deuxième Gavotte (1:34)
Charpentier
32. La Descente D'orph?e Aux Enfers H. 488 : Ouverture (2:54)
Исполнители:

скрытый текст

Jean-Philippe Rameau
Marc-Antoine Charpentier
Musique de Ballet
1979-1999 20 Eme Anniversaire Les Arts Florissants
Les Arts Florissants
Conductor: William Christie
Audio CD (27 Jan 1999)

Лог создания рипа

Exact Audio Copy V1.0 beta 3 from 29. August 2011
EAC extraction logfile from 14. June 2014, 12:04
Rameau / Rameau, Charpentier: Musique de Ballet - Les Arts Florissants - William Christie
Used drive : HL-DT-STDVD-RAM GH22LS30 Adapter: 2 ID: 0
Read mode : Secure
Utilize accurate stream : Yes
Defeat audio cache : Yes
Make use of C2 pointers : No
Read offset correction : 102
Overread into Lead-In and Lead-Out : No
Fill up missing offset samples with silence : Yes
Delete leading and trailing silent blocks : No
Null samples used in CRC calculations : Yes
Used interface : Native Win32 interface for Win NT & 2000
Used output format : User Defined Encoder
Selected bitrate : 768 kBit/s
Quality : High
Add ID3 tag : No
Command line compressor : C:\Program Files (x86)\Exact Audio Copy\FLAC\FLAC.EXE
Additional command line options : -6 -V -T "ARTIST=%artist%" -T "TITLE=%title%" -T "ALBUM=%albumtitle%" -T "DATE=%year%" -T "TRACKNUMBER=%tracknr%" -T "GENRE=%genre%" -T "COMMENT=%comment%" -T "BAND=%albuminterpret%" -T "ALBUMARTIST=%albuminterpret%" -T "COMPOSER=%composer%" %haslyrics%--tag-from-file=LYRICS="%lyricsfile%"%haslyrics% -T "DISCNUMBER=%cdnumber%" -T "TOTALDISCS=%totalcds%" -T "TOTALTRACKS=%numtracks%" %hascover%--picture="%coverfile%"%hascover% %source% -o %dest%
TOC of the extracted CD
Track | Start | Length | Start sector | End sector
---------------------------------------------------------
1 | 0:00.00 | 4:06.40 | 0 | 18489
2 | 4:06.40 | 1:28.57 | 18490 | 25146
3 | 5:35.22 | 0:49.40 | 25147 | 28861
4 | 6:24.62 | 1:00.10 | 28862 | 33371
5 | 7:24.72 | 1:57.50 | 33372 | 42196
6 | 9:22.47 | 1:56.13 | 42197 | 50909
7 | 11:18.60 | 0:59.02 | 50910 | 55336
8 | 12:17.62 | 1:08.20 | 55337 | 60456
9 | 13:26.07 | 1:16.08 | 60457 | 66164
10 | 14:42.15 | 1:25.10 | 66165 | 72549
11 | 16:07.25 | 3:44.45 | 72550 | 89394
12 | 19:51.70 | 2:20.25 | 89395 | 99919
13 | 22:12.20 | 0:34.12 | 99920 | 102481
14 | 22:46.32 | 0:40.65 | 102482 | 105546
15 | 23:27.22 | 1:23.68 | 105547 | 111839
16 | 24:51.15 | 2:32.47 | 111840 | 123286
17 | 27:23.62 | 1:30.38 | 123287 | 130074
18 | 28:54.25 | 1:06.55 | 130075 | 135079
19 | 30:01.05 | 2:17.17 | 135080 | 145371
20 | 32:18.22 | 0:31.23 | 145372 | 147719
21 | 32:49.45 | 4:09.47 | 147720 | 166441
22 | 36:59.17 | 1:52.48 | 166442 | 174889
23 | 38:51.65 | 1:35.02 | 174890 | 182016
24 | 40:26.67 | 0:37.50 | 182017 | 184841
25 | 41:04.42 | 1:15.53 | 184842 | 190519
26 | 42:20.20 | 1:48.25 | 190520 | 198644
27 | 44:08.45 | 2:09.35 | 198645 | 208354
28 | 46:18.05 | 0:29.40 | 208355 | 210569
29 | 46:47.45 | 1:48.47 | 210570 | 218716
30 | 48:36.17 | 2:44.08 | 218717 | 231024
31 | 51:20.25 | 1:47.45 | 231025 | 239094
32 | 53:07.70 | 2:53.10 | 239095 | 252079
33 | 56:01.05 | 1:22.07 | 252080 | 258236
34 | 57:23.12 | 1:11.48 | 258237 | 263609
35 | 58:34.60 | 1:57.42 | 263610 | 272426
36 | 60:32.27 | 1:54.18 | 272427 | 280994
37 | 62:26.45 | 2:55.27 | 280995 | 294146
38 | 65:21.72 | 1:14.20 | 294147 | 299716
39 | 66:36.17 | 0:36.40 | 299717 | 302456
40 | 67:12.57 | 1:30.45 | 302457 | 309251
41 | 68:43.27 | 0:53.50 | 309252 | 313276
Range status and errors
Selected range
Filename G:\1.RIP\109. Rameau, Charpentier - Musique de Ballet\upload\Musique de Ballet - Les Arts Florissants - William Christie.wav
Peak level 98.5 %
Extraction speed 3.1 X
Range quality 100.0 %
Copy CRC 4B48AF61
Copy OK
No errors occurred
AccurateRip summary
Track 1 accurately ripped (confidence 5) [9C573519] (AR v1)
Track 2 accurately ripped (confidence 5) [A29CA783] (AR v1)
Track 3 accurately ripped (confidence 5) [12066F89] (AR v1)
Track 4 accurately ripped (confidence 5) [8CFD378A] (AR v1)
Track 5 accurately ripped (confidence 5) [C5D6A389] (AR v1)
Track 6 accurately ripped (confidence 5) [E2A7A7D1] (AR v1)
Track 7 accurately ripped (confidence 5) [26B86E44] (AR v1)
Track 8 accurately ripped (confidence 5) [9CFECC34] (AR v1)
Track 9 accurately ripped (confidence 5) [E6CC4E41] (AR v1)
Track 10 accurately ripped (confidence 5) [4F7EB448] (AR v1)
Track 11 accurately ripped (confidence 5) [AA544B77] (AR v1)
Track 12 accurately ripped (confidence 5) [B76BA253] (AR v1)
Track 13 accurately ripped (confidence 5) [BB440270] (AR v1)
Track 14 accurately ripped (confidence 5) [F83148DC] (AR v1)
Track 15 accurately ripped (confidence 5) [20B69630] (AR v1)
Track 16 accurately ripped (confidence 5) [90F555ED] (AR v1)
Track 17 accurately ripped (confidence 5) [E70911D8] (AR v1)
Track 18 accurately ripped (confidence 5) [1F1F7640] (AR v1)
Track 19 accurately ripped (confidence 5) [410ABB60] (AR v1)
Track 20 accurately ripped (confidence 5) [22BCE734] (AR v1)
Track 21 accurately ripped (confidence 5) [9BDA2DF1] (AR v1)
Track 22 accurately ripped (confidence 5) [E703C2B2] (AR v1)
Track 23 accurately ripped (confidence 5) [E05BAE22] (AR v1)
Track 24 accurately ripped (confidence 5) [C3947C42] (AR v1)
Track 25 accurately ripped (confidence 5) [2540524A] (AR v1)
Track 26 accurately ripped (confidence 5) [1C5F4354] (AR v1)
Track 27 accurately ripped (confidence 4) [5B4981C2] (AR v1)
Track 28 accurately ripped (confidence 5) [01B9E6B5] (AR v1)
Track 29 accurately ripped (confidence 5) [9528DF90] (AR v1)
Track 30 accurately ripped (confidence 5) [FD7E3829] (AR v1)
Track 31 accurately ripped (confidence 5) [A9BA4962] (AR v1)
Track 32 accurately ripped (confidence 5) [0E3BE4AB] (AR v1)
Track 33 accurately ripped (confidence 5) [D00E8C48] (AR v1)
Track 34 accurately ripped (confidence 5) [69D7CA3B] (AR v1)
Track 35 accurately ripped (confidence 5) [C8E678DB] (AR v1)
Track 36 accurately ripped (confidence 5) [BCAE0A89] (AR v1)
Track 37 accurately ripped (confidence 5) [F476FED2] (AR v1)
Track 38 accurately ripped (confidence 5) [994249DC] (AR v1)
Track 39 accurately ripped (confidence 5) [EB0AE3BC] (AR v1)
Track 40 accurately ripped (confidence 5) [30F51D74] (AR v1)
Track 41 accurately ripped (confidence 5) [420C11E5] (AR v1)
All tracks accurately ripped
End of status report
==== Log checksum ADF28BA9D67D516E76B29A78ECEE5C07B97BECFBADE7EAB5DF14709F6C72146F ====

Содержание индексной карты (.CUE)

REM GENRE Classical
REM DATE 1999
REM DISCID 82105129
REM COMMENT "ExactAudioCopy v1.0b3"
PERFORMER "Rameau"
TITLE "Rameau, Charpentier: Musique de Ballet - Les Arts Florissants - William Christie"
FILE "Musique de Ballet - Les Arts Florissants - William Christie.flac" WAVE
TRACK 01 AUDIO
TITLE "JEAN-PHILLIPPE RAMEAU - Les Fetes d'Hebe - Prologue - Ouverture"
PERFORMER "Rameau"
INDEX 01 00:00:00
TRACK 02 AUDIO
TITLE "Scene 4 - air gai"
PERFORMER "Rameau"
INDEX 00 04:06:02
INDEX 01 04:06:40
TRACK 03 AUDIO
TITLE "Scene 4 - Bourree"
PERFORMER "Rameau"
INDEX 01 05:35:22
TRACK 04 AUDIO
TITLE "Scene 4 - Air gracieux pour Zephir et les Graces"
PERFORMER "Rameau"
INDEX 01 06:24:62
TRACK 05 AUDIO
TITLE "Premiere entree - La Poestie - Scene 8 - Premier et Deuxieme tambourins"
PERFORMER "Rameau"
INDEX 00 07:23:67
INDEX 01 07:24:72
TRACK 06 AUDIO
TITLE "Scene 8 : Premier et Deuxieme rigaudons"
PERFORMER "Rameau"
INDEX 01 09:22:47
TRACK 07 AUDIO
TITLE "Deuxieme entree - La Musique - Scene 5 - Ballet"
PERFORMER "Rameau"
INDEX 00 11:16:57
INDEX 01 11:18:60
TRACK 08 AUDIO
TITLE "Scene 5 - Pour le genie de Mars"
PERFORMER "Rameau"
INDEX 01 12:17:62
TRACK 09 AUDIO
TITLE "Scene 5 - La Victoire"
PERFORMER "Rameau"
INDEX 01 13:26:07
TRACK 10 AUDIO
TITLE "Scene 5 - Premier et Deuxieme rigaudons"
PERFORMER "Rameau"
INDEX 01 14:42:15
TRACK 11 AUDIO
TITLE "Scene 5 - Chaconne"
PERFORMER "Rameau"
INDEX 01 16:07:25
TRACK 12 AUDIO
TITLE "Troisieme entree - La Danse - Scene 6 - Premiere et Deuxieme gavottes"
PERFORMER "Rameau"
INDEX 00 19:50:50
INDEX 01 19:51:70
TRACK 13 AUDIO
TITLE "Scene 6 - Rigaudon"
PERFORMER "Rameau"
INDEX 01 22:12:20
TRACK 14 AUDIO
TITLE "Scene 6 - Prelude(gai)"
PERFORMER "Rameau"
INDEX 01 22:46:32
TRACK 15 AUDIO
TITLE "Scene 7 - Loure grave"
PERFORMER "Rameau"
INDEX 01 23:27:22
TRACK 16 AUDIO
TITLE "Scene 7 - Premier et Deuxieme menuets"
PERFORMER "Rameau"
INDEX 01 24:51:15
TRACK 17 AUDIO
TITLE "Scene7 - Musette"
PERFORMER "Rameau"
INDEX 01 27:23:62
TRACK 18 AUDIO
TITLE "Scene 7 - Tambourin en rondeau"
PERFORMER "Rameau"
INDEX 01 28:54:25
TRACK 19 AUDIO
TITLE "Scene 7 - Premier et Deuxieme passepieds"
PERFORMER "Rameau"
INDEX 01 30:01:05
TRACK 20 AUDIO
TITLE "Scene 7 - Contredanse"
PERFORMER "Rameau"
INDEX 01 32:18:22
TRACK 21 AUDIO
TITLE "Hippolyte et Aricie - Prologue - Ouverture"
PERFORMER "Rameau"
INDEX 00 32:47:02
INDEX 01 32:49:45
TRACK 22 AUDIO
TITLE "Prologue, Scene 5 - Air en rondeau pour les amours"
PERFORMER "Rameau"
INDEX 01 36:59:17
TRACK 23 AUDIO
TITLE "Prologue, Scene 5 - Premier menuet"
PERFORMER "Rameau"
INDEX 01 38:51:65
TRACK 24 AUDIO
TITLE "Prologue, Scene 5 - Marche"
PERFORMER "Rameau"
INDEX 01 40:26:67
TRACK 25 AUDIO
TITLE "Acte 1, scene 3 - Marche"
PERFORMER "Rameau"
INDEX 01 41:04:42
TRACK 26 AUDIO
TITLE "Acte 2, scene 3 - Premier air des Furies"
PERFORMER "Rameau"
INDEX 01 42:20:20
TRACK 27 AUDIO
TITLE "Acte 3, scene 8 - Premier et Deuxieme airs des Matelots"
PERFORMER "Rameau"
INDEX 01 44:08:45
TRACK 28 AUDIO
TITLE "Acte 3, scene 8 - Premier rigaudon"
PERFORMER "Rameau"
INDEX 01 46:18:05
TRACK 29 AUDIO
TITLE "Acte 4, scene 3 - Deuxieme air des chasseurs"
PERFORMER "Rameau"
INDEX 01 46:47:45
TRACK 30 AUDIO
TITLE "Acte 4, scene 3 - Premier et Deuxieme menuets"
PERFORMER "Rameau"
INDEX 01 48:36:17
TRACK 31 AUDIO
TITLE "Acte 5, scene finale - Premiere et Deuxieme gavottes"
PERFORMER "Rameau"
INDEX 01 51:20:25
TRACK 32 AUDIO
TITLE "MARC-ANTOINE CHARPENTIER - La Descente d'Orphee aux Enfers - Ouverture"
PERFORMER "Rameau"
INDEX 00 53:04:02
INDEX 01 53:07:70
TRACK 33 AUDIO
TITLE "Acte I, scene 1 - Entree des Nymphes"
PERFORMER "Rameau"
INDEX 01 56:01:05
TRACK 34 AUDIO
TITLE "Acte II, scene 2 - Les Fantomes"
PERFORMER "Rameau"
INDEX 01 57:23:12
TRACK 35 AUDIO
TITLE "Les Plaisirs de Versailles - Ouverture"
PERFORMER "Rameau"
INDEX 00 58:32:15
INDEX 01 58:34:60
TRACK 36 AUDIO
TITLE "Medee - Prologue - Ouverture"
PERFORMER "Rameau"
INDEX 00 60:31:02
INDEX 01 60:32:27
TRACK 37 AUDIO
TITLE "Loure"
PERFORMER "Rameau"
INDEX 01 62:26:45
TRACK 38 AUDIO
TITLE "Acte 1, scene 6 - Rondeau des Corinthiens"
PERFORMER "Rameau"
INDEX 01 65:21:72
TRACK 39 AUDIO
TITLE "Acte 1, scene 6 - Entracte"
PERFORMER "Rameau"
INDEX 01 66:36:17
TRACK 40 AUDIO
TITLE "Acte 3, scene 7 - Premier air pour les demons"
PERFORMER "Rameau"
INDEX 01 67:12:57
TRACK 41 AUDIO
TITLE "Acte 3, scene 7 - Seconde entree des demons"
PERFORMER "Rameau"
INDEX 01 68:43:27



Показать сообщения:    

Текущее время: 04-Дек 15:15

Часовой пояс: UTC + 3


Вы не можете начинать темы
Вы не можете отвечать на сообщения
Вы не можете редактировать свои сообщения
Вы не можете удалять свои сообщения
Вы не можете голосовать в опросах
Вы не можете прикреплять файлы к сообщениям
Вы не можете скачивать файлы