Симфония экрана (Сергей Капков) [2014, Музыка, DVB-AVC]


Статистика раздачи [Обновить пиров]
Размер:  1.01 GB   |    Зарегистрирован:  8 месяцев 18 дней   |    Скачан:  0 раз

Полного источника не было: Никогда

 
   
 
 
 

[Цитировать]

Симфония экрана
Дата/Год выпуска: 2014
Страна: Россия
Жанр: Музыка
Продолжительность: 00:52:00
Перевод: Не требуется
Режиссер: Сергей Капков
Описание: Фильм о Российском государственном симфоническом оркестре кинематографии. Оркестр принимал участие в создании тысяч отечественных фильмов, сотрудничал со всеми киностудиями СССР, почти со всеми композиторами и режиссерами. Зрители заглянут на репетиции, узнают тайны синхронизации музыки с киноэкраном, побывают в тон-студии.
В фильме принимали участие: Сергей Скрипка, Александра Пахмутова, Александр Зацепин, Эдуард Артемьев, Никита Михалков, Эльдар Рязанов, Карен Шахназаров и другие.
Сэмпл: http://sendfile.su/1050216
Качество видео: DVB-AVC (РТРС-1)
Формат/Контейнер: MKV
Видео кодек: H.264
Аудио кодек: MP2
Видео поток: 720x576 (AR 785:576) 50fps ~2500 Kbps.
Аудио поток: 48000Hz 2 ch mono 192 Kbps

MediaInfo

Format                         : Matroska
Format version : Version 4 / Version 2
File size : 1.01 GiB
Duration : 52mn 0s
Overall bit rate : 2 783 Kbps
Encoded date : UTC 2014-11-18 21:25:19
Writing application : mkvmerge v6.1.0 ('Old Devil') built on Mar 4 2013 09:10:42
Writing library : libebml v1.3.0 + libmatroska v1.4.0
Video
ID : 1
Format : AVC
Format/Info : Advanced Video Codec
Format profile : Main@L3.0
Format settings, CABAC : Yes
Format settings, ReFrames : 3 frames
Codec ID : V_MPEG4/ISO/AVC
Duration : 52mn 0s
Bit rate : 2 535 Kbps
Width : 720 pixels
Height : 576 pixels
Display aspect ratio : 4:3
Original display aspect ratio : 4:3
Frame rate mode : Constant
Frame rate : 25.000 fps
Standard : Component
Color space : YUV
Chroma subsampling : 4:2:0
Bit depth : 8 bits
Scan type : Interlaced
Bits/(Pixel*Frame) : 0.245
Stream size : 943 MiB (91%)
Default : Yes
Forced : No
Color primaries : BT.601 PAL
Transfer characteristics : BT.470 System B, BT.470 System G
Matrix coefficients : BT.601
Audio
ID : 2
Format : MPEG Audio
Format version : Version 1
Format profile : Layer 2
Codec ID : A_MPEG/L2
Codec ID/Hint : MP2
Duration : 52mn 0s
Bit rate mode : Constant
Bit rate : 192 Kbps
Channel(s) : 2 channels
Sampling rate : 48.0 KHz
Compression mode : Lossy
Delay relative to video : 12ms
Stream size : 71.4 MiB (7%)
Default : Yes
Forced : No

Скриншоты

[teatrix.ru].t19499.torrent 
Торрент: Зарегистрирован [ 2016-03-18 12:44 ] · 1147099BE1210ACC8EBD96F927729AF2149E3AA6

Скачать .torrent

Скачать

11 KB

Статус: проверено
Скачан: 0 раз
Размер: 1.01 GB
terms.php



Быстрый ответ

Имя:

      
Для отправки сообщений необходимо включить JavaScript
Показать сообщения:    

Текущее время: 05-Дек 19:38

Часовой пояс: UTC + 3


Вы можете начинать темы
Вы можете отвечать на сообщения
Вы не можете редактировать свои сообщения
Вы не можете удалять свои сообщения
Вы не можете голосовать в опросах
Вы не можете прикреплять файлы к сообщениям
Вы можете скачивать файлы