(Opera/Ballet) Rameau - Les Fetes d'Hebe (Highlights) - Leppard, F. Couperin - Les Nations (La Francaise) - Roussel - 1996, APE (image+.cue) lossless


 

[Цитировать]

Rameau - Les Fetes d'Hebe (Highlights) - Raymond Leppard, F. Couperin - Les Nations - Jacques Roussel
Жанр: Opera/Ballet
Страна-производитель диска: USA
Год издания диска: 1996
Издатель (лейбл): EMI
Дата записи: 1966, 1973-1974
Аудиокодек: APE
Тип рипа: image+.cue
Битрейт аудио: lossless
Продолжительность: 66.33
Источник: собственный рип
Наличие сканов в содержимом раздачи: да
Треклист:
Les Fetes d'Hebe
1.Ouverture
2.Air gracieux
3.Tambourins 1 & 2
4.Scène VII, 3ème entrée
5.Choeur des Mariniers
6.Passepieds 1 & 2
7.Choeur: L'amour règne en ces bois
8.Gavottes en rondeau 1 & 2
9.Fortunés habitants
10.Scène V, 2ème entrée
Les Nations - La Française
11.Ouverture
12.Allemands
13.Courants 1 & 2
14.Sarabande
15.Gigue
16.Chaconne ou passacaille
17.Gavotte
18.Menuet
Исполнители:
Les Fêtes d'Hébé
Ursula Connors - soprano
Ambrosian Singers
English Chamber Orhestra
Raymond Leppard - direction
Les Nations - La Française
Orchestre de Chambre "Antiqua Musica"
Antoine Geoffroy-Dechaume - clavecin
Jacques Roussel - direction
Jean-Perre Walez/Michel Noel et Alain Kouznetzoff, violons solo
Jean Lamy, viole de gambe
Maurice Bourgues et Jacques Chambon, hautbois

Лог создания рипа

Exact Audio Copy V1.0 beta 3 from 29. August 2011
EAC extraction logfile from 19. November 2014, 16:53
Various Artists / Baroque Vol. 17
Used drive : PIONEER DVD-RW DVRTD11RS Adapter: 6 ID: 0
Read mode : Secure
Utilize accurate stream : Yes
Defeat audio cache : Yes
Make use of C2 pointers : No
Read offset correction : 6
Overread into Lead-In and Lead-Out : No
Fill up missing offset samples with silence : Yes
Delete leading and trailing silent blocks : No
Null samples used in CRC calculations : Yes
Used interface : Installed external ASPI interface
Used output format : User Defined Encoder
Selected bitrate : 128 kBit/s
Quality : High
Add ID3 tag : No
Command line compressor : C:\Program Files (x86)\Monkey's Audio\MAC.exe
Additional command line options : %source% %dest% -c3000
TOC of the extracted CD
Track | Start | Length | Start sector | End sector
---------------------------------------------------------
1 | 0:00.00 | 5:09.15 | 0 | 23189
2 | 5:09.15 | 2:42.55 | 23190 | 35394
3 | 7:51.70 | 2:11.18 | 35395 | 45237
4 | 10:03.13 | 9:11.30 | 45238 | 86592
5 | 19:14.43 | 3:25.02 | 86593 | 101969
6 | 22:39.45 | 2:31.28 | 101970 | 113322
7 | 25:10.73 | 4:31.07 | 113323 | 133654
8 | 29:42.05 | 3:49.08 | 133655 | 150837
9 | 33:31.13 | 3:20.72 | 150838 | 165909
10 | 36:52.10 | 10:09.30 | 165910 | 211614
11 | 47:01.40 | 6:04.30 | 211615 | 238944
12 | 53:05.70 | 2:57.65 | 238945 | 252284
13 | 56:03.60 | 3:39.48 | 252285 | 268757
14 | 59:43.33 | 1:27.52 | 268758 | 275334
15 | 61:11.10 | 1:04.60 | 275335 | 280194
16 | 62:15.70 | 2:18.65 | 280195 | 290609
17 | 64:34.60 | 0:57.38 | 290610 | 294922
18 | 65:32.23 | 1:01.20 | 294923 | 299517
Range status and errors
Selected range
Filename C:\Documents and Settings\Администратор\Мои документы\Various Artists - Baroque Vol. 17.wav
Peak level 96.2 %
Extraction speed 4.7 X
Range quality 100.0 %
Test CRC 0386E904
Copy CRC 0386E904
Copy OK
No errors occurred
End of status report
==== Log checksum 83FDC69754511B63156508D3209D6D380E999B9B86BBBBC91E8920B1CFD03C8E ====



Показать сообщения:    

Текущее время: 07-Дек 19:25

Часовой пояс: UTC + 3


Вы не можете начинать темы
Вы не можете отвечать на сообщения
Вы не можете редактировать свои сообщения
Вы не можете удалять свои сообщения
Вы не можете голосовать в опросах
Вы не можете прикреплять файлы к сообщениям
Вы не можете скачивать файлы