(Classical) Онсло – Струнные квартеты I: № 7, 9 и 22 / Onslow – String Quartets, Vol. 1: Opp. 9/1, 9/3 & 47 (Mandelring Quartett: Sebastian, Nanette & Bernhard Schmidt with Nora Niggeling) - 1993, FLAC (image+.cue) lossless


 

[Цитировать]

Онсло – Струнные квартеты I: № 7, 9 и 22 / Onslow – String Quartets, Vol. 1: Opp. 9/1, 9/3 & 47 (Mandelring Quartett: Sebastian, Nanette & Bernhard Schmidt with Nora Niggeling)
Жанр: Classical
Страна-производитель диска: Германия
Год издания диска: 1993
Издатель (лейбл): cpo
Номер по каталогу: 999 060-2
Дата записи: 3 — 7 февраля 1992 г.
Аудиокодек: FLAC
Тип рипа: image+.cue
Битрейт аудио: lossless
Продолжительность: 01:10:25
Источник: odeonmusic
Наличие сканов в содержимом раздачи: да
Треклист:
Андре Жорж Луи Онсло (1784 — 1853).
Три струнных квартета, op. 9 (1812/1815): № 1 (7) g-moll.
01. I. Allegro risoluto ma non troppo presto [06:26].
02. II. Andante religioso. «God save the King». — Вариация I. — Вариация II. — Вариация III. — Вариация IV [08:23].
03. III. Minuetto. Presto. — Trio. Con grazia. — Minuetto da capo [03:12].
04. IV. Finale. Agitato [04:05].
Три струнных квартета, op. 9 (1812/1815): № 3 (9) f-moll.
05. I. Moderato [08:50].
06. II. Minuetto. Allegro. — Leggieramente. — Minuetto da capo [03:06].
07. III. Andante quasi allegretto [05:50].
08. IV. Allegro agitato [04:53].
Струнный квартет № 22 C-dur, op. 47 (1832/1833).
09. I. Introduzione. Lento. — Allegro sempre maestoso [10:58].
10. II. Menuetto. Allegro energico [03:29].
11. III. Andante [06:33].
12. IV. Finale. Presto [04:21].
Исполнители:
Mandelring Quartett:
Sebastian Schmidt (скрипка),
Nanette Schmidt (скрипка),
Nora Niggeling (альт),
Bernhard Schmidt (виолончель).

Лог создания рипа

Exact Audio Copy V1.0 beta 3 from 29. August 2011
EAC extraction logfile from 19. January 2013, 9:42
Mandelring Quartett / Onslow - String Quartets - Mandelring Quartett (Vol.1)
Used drive : TSSTcorpCDDVDW SH-222BB Adapter: 2 ID: 1
Read mode : Secure
Utilize accurate stream : Yes
Defeat audio cache : Yes
Make use of C2 pointers : No
Read offset correction : 6
Overread into Lead-In and Lead-Out : No
Fill up missing offset samples with silence : Yes
Delete leading and trailing silent blocks : No
Null samples used in CRC calculations : Yes
Used interface : Native Win32 interface for Win NT & 2000
Used output format : User Defined Encoder
Selected bitrate : 1024 kBit/s
Quality : High
Add ID3 tag : No
Command line compressor : C:\Program Files\Exact Audio Copy\Flac\flac.exe
Additional command line options : -8 -V -T "TITLE=%title%" -T "ARTIST=%artist%" -T "ALBUMARTIST=%albumartist%" -T "ALBUM=%albumtitle%" -T "DATE=%year%" -T "TRACKNUMBER=%tracknr%" -T "TRACKTOTAL=%numtracks%" -T "GENRE=%genre%" -T "COMMENT=%comment%" -T "PERFORMER=%albuminterpret%" -T "COMPOSER=%composer%" %source% -o %dest%
TOC of the extracted CD
Track | Start | Length | Start sector | End sector
---------------------------------------------------------
1 | 0:00.33 | 6:27.45 | 33 | 29102
2 | 6:28.03 | 8:23.37 | 29103 | 66864
3 | 14:51.40 | 3:12.10 | 66865 | 81274
4 | 18:03.50 | 4:07.53 | 81275 | 99852
5 | 22:11.28 | 8:51.60 | 99853 | 139737
6 | 31:03.13 | 3:06.27 | 139738 | 153714
7 | 34:09.40 | 5:51.30 | 153715 | 180069
8 | 40:00.70 | 5:01.55 | 180070 | 202699
9 | 45:02.50 | 10:58.60 | 202700 | 252109
10 | 56:01.35 | 3:29.65 | 252110 | 267849
11 | 59:31.25 | 6:33.30 | 267850 | 297354
12 | 66:04.55 | 4:21.28 | 297355 | 316957
Range status and errors
Selected range
Filename G:\Ripped general\[2139] Onslow - String Quartets – Mandelring Quartett (Vol.1)\Onslow - String Quartets - Mandelring Quartett (Vol.1).wav
Peak level 97.7 %
Extraction speed 2.3 X
Range quality 100.0 %
Test CRC 82F79B34
Copy CRC 82F79B34
Copy OK
No errors occurred
AccurateRip summary
Track 1 accurately ripped (confidence 3) [BCFA60E2] (AR v1)
Track 2 accurately ripped (confidence 3) [CF811A04] (AR v1)
Track 3 accurately ripped (confidence 3) [4FC61CEE] (AR v1)
Track 4 accurately ripped (confidence 3) [83C09A7D] (AR v1)
Track 5 accurately ripped (confidence 3) [94B44075] (AR v1)
Track 6 accurately ripped (confidence 3) [34BDE23C] (AR v1)
Track 7 accurately ripped (confidence 3) [243C794E] (AR v1)
Track 8 accurately ripped (confidence 3) [A3F49900] (AR v1)
Track 9 accurately ripped (confidence 3) [4B228788] (AR v1)
Track 10 accurately ripped (confidence 3) [7B497289] (AR v1)
Track 11 accurately ripped (confidence 3) [F2E4E199] (AR v1)
Track 12 accurately ripped (confidence 3) [530496C8] (AR v1)
All tracks accurately ripped
End of status report

Содержание индексной карты (.CUE)

REM GENRE Classical
REM DATE 1993
REM DISCID A410820C
REM COMMENT "ExactAudioCopy v1.0b3"
PERFORMER "Mandelring Quartett"
TITLE "Onslow – String quartets – Mandelring Quartett (Vol. 1)"
FILE "Onslow – String quartets – Mandelring Quartett (Vol. 1).flac" WAVE
TRACK 01 AUDIO
TITLE "String Quartet No. 7 in G minor, Op. 9 No. 1 - I. Allegro risoluto ma non troppo presto"
PERFORMER "Mandelring Quartett"
INDEX 00 00:00:00
INDEX 01 00:00:33
TRACK 02 AUDIO
TITLE "String Quartet No. 7 in G minor, Op. 9 No. 1 - II. Andante religioso"
PERFORMER "Mandelring Quartett"
INDEX 00 06:26:70
INDEX 01 06:28:03
TRACK 03 AUDIO
TITLE "String Quartet No. 7 in G minor, Op. 9 No. 1 - III. Minuetto. Presto"
PERFORMER "Mandelring Quartett"
INDEX 00 14:51:13
INDEX 01 14:51:40
TRACK 04 AUDIO
TITLE "String Quartet No. 7 in G minor, Op. 9 No. 1 - IV. Finale. Agitato"
PERFORMER "Mandelring Quartett"
INDEX 01 18:03:50
TRACK 05 AUDIO
TITLE "String Quartet No. 9 in F minor, Op. 9 No. 3 - I. Moderato"
PERFORMER "Mandelring Quartett"
INDEX 00 22:03:63
INDEX 01 22:11:28
TRACK 06 AUDIO
TITLE "String Quartet No. 9 in F minor, Op. 9 No. 3 - II. Minuetto. Allegro"
PERFORMER "Mandelring Quartett"
INDEX 00 31:02:08
INDEX 01 31:03:13
TRACK 07 AUDIO
TITLE "String Quartet No. 9 in F minor, Op. 9 No. 3 - III. Andante quasi allegretto"
PERFORMER "Mandelring Quartett"
INDEX 01 34:09:40
TRACK 08 AUDIO
TITLE "String Quartet No. 9 in F minor, Op. 9 No. 3 - IV. Allegro agitato"
PERFORMER "Mandelring Quartett"
INDEX 00 40:00:00
INDEX 01 40:00:70
TRACK 09 AUDIO
TITLE "String Quartet No. 22 in C major, Op. 47 - I. Introduzione. Lento - Allegro sempre maestoso"
PERFORMER "Mandelring Quartett"
INDEX 00 44:54:15
INDEX 01 45:02:50
TRACK 10 AUDIO
TITLE "String Quartet No. 22 in C major, Op. 47 - II. Menuetto. Allegro energico"
PERFORMER "Mandelring Quartett"
INDEX 00 56:01:28
INDEX 01 56:01:35
TRACK 11 AUDIO
TITLE "String Quartet No. 22 in C major, Op. 47 - III. Andante"
PERFORMER "Mandelring Quartett"
INDEX 00 59:30:43
INDEX 01 59:31:25
TRACK 12 AUDIO
TITLE "String Quartet No. 22 in C major, Op. 47 - IV. Finale. Presto"
PERFORMER "Mandelring Quartett"
INDEX 00 66:04:25
INDEX 01 66:04:55

Вариант индексной карты (.CUE) с подправленными зазорами

REM GENRE Classical
REM DATE 1993
REM DISCID A410820C
REM COMMENT "ExactAudioCopy v1.0b3"
PERFORMER "Mandelring Quartett"
TITLE "Onslow – String quartets – Mandelring Quartett (Vol. 1)"
FILE "Onslow – String quartets – Mandelring Quartett (Vol. 1).flac" WAVE
TRACK 01 AUDIO
TITLE "String Quartet No. 7 in G minor, Op. 9 No. 1 - I. Allegro risoluto ma non troppo presto"
PERFORMER "Mandelring Quartett"
INDEX 00 00:00:00
INDEX 01 00:00:33
TRACK 02 AUDIO
TITLE "String Quartet No. 7 in G minor, Op. 9 No. 1 - II. Andante religioso"
PERFORMER "Mandelring Quartett"
INDEX 00 06:26:15
INDEX 01 06:28:03
TRACK 03 AUDIO
TITLE "String Quartet No. 7 in G minor, Op. 9 No. 1 - III. Minuetto. Presto"
PERFORMER "Mandelring Quartett"
INDEX 00 14:50:29
INDEX 01 14:51:40
TRACK 04 AUDIO
TITLE "String Quartet No. 7 in G minor, Op. 9 No. 1 - IV. Finale. Agitato"
PERFORMER "Mandelring Quartett"
INDEX 01 18:03:50
TRACK 05 AUDIO
TITLE "String Quartet No. 9 in F minor, Op. 9 No. 3 - I. Moderato"
PERFORMER "Mandelring Quartett"
INDEX 00 22:02:69
INDEX 01 22:11:28
TRACK 06 AUDIO
TITLE "String Quartet No. 9 in F minor, Op. 9 No. 3 - II. Minuetto. Allegro"
PERFORMER "Mandelring Quartett"
INDEX 00 31:00:67
INDEX 01 31:03:13
TRACK 07 AUDIO
TITLE "String Quartet No. 9 in F minor, Op. 9 No. 3 - III. Andante quasi allegretto"
PERFORMER "Mandelring Quartett"
INDEX 01 34:09:40
TRACK 08 AUDIO
TITLE "String Quartet No. 9 in F minor, Op. 9 No. 3 - IV. Allegro agitato"
PERFORMER "Mandelring Quartett"
INDEX 00 40:00:00
INDEX 01 40:00:70
TRACK 09 AUDIO
TITLE "String Quartet No. 22 in C major, Op. 47 - I. Introduzione. Lento - Allegro sempre maestoso"
PERFORMER "Mandelring Quartett"
INDEX 00 44:53:20
INDEX 01 45:02:50
TRACK 10 AUDIO
TITLE "String Quartet No. 22 in C major, Op. 47 - II. Menuetto. Allegro energico"
PERFORMER "Mandelring Quartett"
INDEX 00 56:00:44
INDEX 01 56:01:57
TRACK 11 AUDIO
TITLE "String Quartet No. 22 in C major, Op. 47 - III. Andante"
PERFORMER "Mandelring Quartett"
INDEX 00 59:29:41
INDEX 01 59:31:25
TRACK 12 AUDIO
TITLE "String Quartet No. 22 in C major, Op. 47 - IV. Finale. Presto"
PERFORMER "Mandelring Quartett"
INDEX 00 66:04:25
INDEX 01 66:04:55
INDEX 02 70:23:69
-Жорж Онсло — Mandelring Quartett.
Струнные квартеты (диск II): № 1, 10 и 21.
Струнные квартеты (диск III): № 4, 20 и 25.
Нонет. Струнный квинтет № 19.



Показать сообщения:    

Текущее время: 04-Дек 02:47

Часовой пояс: UTC + 3


Вы не можете начинать темы
Вы не можете отвечать на сообщения
Вы не можете редактировать свои сообщения
Вы не можете удалять свои сообщения
Вы не можете голосовать в опросах
Вы не можете прикреплять файлы к сообщениям
Вы не можете скачивать файлы