(Classical) Anton Bruckner - Symphony No. 4 in Eb Major 'Romantic' (Yannick Nezet-Seguin) - 2011, FLAC (tracks+.cue) lossless


 

[Цитировать]

Anton Bruckner - Symphony No. 4 in Eb Major 'Romantic' (Yannick Nezet-Seguin)
Жанр: Classical
Год издания диска: 2011
Издатель (лейбл): ATMA
Номер по каталогу: ACD22667
Аудиокодек: FLAC
Тип рипа: tracks+.cue
Битрейт аудио: lossless
Продолжительность: 70 минут
Источник: собственный рип
Треклист:
I. Bewegt, nicht zu schnell
II. Andante quasi allegretto
III. Scherzo: Bewegt
IV. Finale: Bewegt, doch nicht zu schnell
Исполнители:
Orchestre Métropolitain
Yannick Nézet-Séguin

Лог создания рипа

X Lossless Decoder version 20141109 (148.0)
XLD extraction logfile from 2014-11-16 01:33:43 +0500
Yannick Nézet-Séguin: Orchestre Métropolitain Du Grand Montréal / Bruckner: Symphony #4 "Romantic"
Used drive : ASUS SBW-06D2X-U (revision D501)
Media type : Pressed CD
Ripper mode : XLD Secure Ripper
Disable audio cache : OK for the drive with a cache less than 1375KiB
Make use of C2 pointers : NO
Read offset correction : 103
Max retry count : 20
Gap status : Analyzed, Appended (except HTOA)
TOC of the extracted CD
Track | Start | Length | Start sector | End sector
---------------------------------------------------------
1 | 00:00:00 | 19:30:26 | 0 | 87775
2 | 19:30:26 | 16:55:60 | 87776 | 163960
3 | 36:26:11 | 10:48:33 | 163961 | 212593
4 | 47:14:44 | 22:52:43 | 212594 | 315536
AccurateRip Summary (DiscID: 000be65c-002f3bc9-33106f04)
Track 01 : OK (v2, confidence 5/5)
Track 02 : OK (v2, confidence 5/5)
Track 03 : OK (v2, confidence 5/5)
Track 04 : OK (v2, confidence 5/5)
->All tracks accurately ripped.
All Tracks
Statistics
Read error : 0
Jitter error (maybe fixed) : 0
Retry sector count : 0
Damaged sector count : 0
Track 01
Filename : /Volumes/Andy HD2/XLD/Bruckner - Symphony #4 "Romantic" (Yannick Nezet-Seguin)/01.01 Yannick Nezet-Seguin. Orchestre Metropolitain Du Grand Montreal - Bruckner. Symphony #4 In E Flat "Romantic" - 1. Bewegt, Nicht Zu Schnell.flac
Pre-gap length : 00:02:00
CRC32 hash : 78034839
CRC32 hash (skip zero) : E30D0CEB
AccurateRip v1 signature : BED3C6F0
AccurateRip v2 signature : A890F266
->Accurately ripped (v2, confidence 5/5)
Statistics
Read error : 0
Jitter error (maybe fixed) : 0
Retry sector count : 0
Damaged sector count : 0
Track 02
Filename : /Volumes/Andy HD2/XLD/Bruckner - Symphony #4 "Romantic" (Yannick Nezet-Seguin)/01.02 Yannick Nezet-Seguin. Orchestre Metropolitain Du Grand Montreal - Bruckner. Symphony #4 In E Flat "Romantic" - 2. Andante, (Quasi Allegretto).flac
CRC32 hash : A6F62FE2
CRC32 hash (skip zero) : 2069EAB9
AccurateRip v1 signature : 88E0AC57
AccurateRip v2 signature : ADFD2776
->Accurately ripped (v2, confidence 5/5)
Statistics
Read error : 0
Jitter error (maybe fixed) : 0
Retry sector count : 0
Damaged sector count : 0
Track 03
Filename : /Volumes/Andy HD2/XLD/Bruckner - Symphony #4 "Romantic" (Yannick Nezet-Seguin)/01.03 Yannick Nezet-Seguin. Orchestre Metropolitain Du Grand Montreal - Bruckner. Symphony #4 In E Flat "Romantic" - 3. Scherzo (Bewegt) Trio. Nicht Zu Schnell, Keinesfalls Schleppend.flac
CRC32 hash : DD1FA878
CRC32 hash (skip zero) : E5A2FF6C
AccurateRip v1 signature : C72B7598
AccurateRip v2 signature : E1842952
->Accurately ripped (v2, confidence 5/5)
Statistics
Read error : 0
Jitter error (maybe fixed) : 0
Retry sector count : 0
Damaged sector count : 0
Track 04
Filename : /Volumes/Andy HD2/XLD/Bruckner - Symphony #4 "Romantic" (Yannick Nezet-Seguin)/01.04 Yannick Nezet-Seguin. Orchestre Metropolitain Du Grand Montreal - Bruckner. Symphony #4 In E Flat "Romantic" - 4. Finale (Bewegt, Doch Nicht Zu Schnell).flac
CRC32 hash : 374F74C7
CRC32 hash (skip zero) : 0BF3A5B6
AccurateRip v1 signature : 4978D949
AccurateRip v2 signature : 38255917
->Accurately ripped (v2, confidence 5/5)
Statistics
Read error : 0
Jitter error (maybe fixed) : 0
Retry sector count : 0
Damaged sector count : 0
No errors occurred
End of status report

Содержание индексной карты (.CUE)

TITLE "Bruckner: Symphony #4 "Romantic""
PERFORMER "Yannick Nézet-Séguin: Orchestre Métropolitain Du Grand Montréal"
REM GENRE "Classical"
REM DATE "2011"
REM DISCID 33106F04
FILE "01.01 Yannick Nezet-Seguin. Orchestre Metropolitain Du Grand Montreal - Bruckner. Symphony #4 In E Flat "Romantic" - 1. Bewegt, Nicht Zu Schnell.flac" WAVE
TRACK 01 AUDIO
TITLE "Bruckner: Symphony #4 In E Flat "Romantic" - 1. Bewegt, Nicht Zu Schnell"
SONGWRITER "Anton Bruckner"
ISRC CAJ721166701
INDEX 01 00:00:00
FILE "01.02 Yannick Nezet-Seguin. Orchestre Metropolitain Du Grand Montreal - Bruckner. Symphony #4 In E Flat "Romantic" - 2. Andante, (Quasi Allegretto).flac" WAVE
TRACK 02 AUDIO
TITLE "Bruckner: Symphony #4 In E Flat "Romantic" - 2. Andante, (Quasi Allegretto)"
SONGWRITER "Anton Bruckner"
ISRC CAJ721166702
INDEX 01 00:00:00
FILE "01.03 Yannick Nezet-Seguin. Orchestre Metropolitain Du Grand Montreal - Bruckner. Symphony #4 In E Flat "Romantic" - 3. Scherzo (Bewegt) Trio. Nicht Zu Schnell, Keinesfalls Schleppend.flac" WAVE
TRACK 03 AUDIO
TITLE "Bruckner: Symphony #4 In E Flat "Romantic" - 3. Scherzo (Bewegt) Trio. Nicht Zu Schnell, Keinesfalls Schleppend"
SONGWRITER "Anton Bruckner"
ISRC CAJ721166703
INDEX 01 00:00:00
FILE "01.04 Yannick Nezet-Seguin. Orchestre Metropolitain Du Grand Montreal - Bruckner. Symphony #4 In E Flat "Romantic" - 4. Finale (Bewegt, Doch Nicht Zu Schnell).flac" WAVE
TRACK 04 AUDIO
TITLE "Bruckner: Symphony #4 In E Flat "Romantic" - 4. Finale (Bewegt, Doch Nicht Zu Schnell)"
SONGWRITER "Anton Bruckner"
ISRC CAJ721166704
INDEX 01 00:00:00



Показать сообщения:    

Текущее время: 04-Дек 00:53

Часовой пояс: UTC + 3


Вы не можете начинать темы
Вы не можете отвечать на сообщения
Вы не можете редактировать свои сообщения
Вы не можете удалять свои сообщения
Вы не можете голосовать в опросах
Вы не можете прикреплять файлы к сообщениям
Вы не можете скачивать файлы